EASY
BASIC
ADVANCED
EXPERT
MASTER
(220){1}
1h[4:15]/8h[4:7],,3h[2:5],,5h[2:3],
7h[2:3],2h[2:1],1s5[8:3]/8z4[8:3],
{8}
4/7,,5/6h[2:1],,,4,4,,3h[4:3]/6p4[2:1],,,,,,,,
2/5,,4/3h[2:1],,,5,5,,6h[4:3]/3q5[2:1],,,,,,,,
1/8,1v2[8:1]/8,,8v7[8:1],,,,3/6,
{16}4,5,4,5,{8}4,,,7,8,7,2,1^6[8:1],2,
{4}1^4[8:1],1-6[8:1],1-3[8:1],1w5[8:3],,,
{8},2b/7b,,6,5-1[8:1],,5,8,,2/7,,3,4-8[8:1],,4,1,,
2/7,,6,5-1[8:1],,5,8,,2-5[8:1],1,2,8-4[8:1],,8,2,,
2/7,,3,4-7[8:1],,4,1,,2/7,,6,5-2[8:1],,5,8,,
2/7,,3,4-7[8:1],,4,1,,7^4[8:1],8,7,1-5[8:1],,1,7,,
1/8,,6,5^2[8:1],,5,7,,1/8,,3,4^7[8:1],,4,2,,
1/8,,6,5^2[8:1],,5,8,,2^5[8:1],1,2,8p4[8:1],,8,3,,
4/5,4/5v6[8:1],,4v3[8:1],,,,2/7,
{16}1,8,1,8,{8}1,,,2,1,2,7,8^3[8:1],7,
{4}8^5[8:1],8-3[8:1],8-5[8:1],8-2[8:1],
{16}8,,7,6,5,4,3,2,1,8,
{8}
2/7,2^5[4:1],,5^8[4:1],,8^3[4:1],,3^6[4:1],,6q4[8:3],,8h[8:3],,,,,
1/7,2/7^4[4:1],3/7,4^1[4:1],,1^6[4:1],,6^3[4:1],,3p5[8:3],,1h[8:3],,,,,
1/5,1>5[4:1]/5,,5<1[4:1],,1>5[4:1],,5<1[4:1],,1s5[8:3],,6h[8:3],,,,,
2h[4:1]/6h[4:1],,,3/7,
{16}4,5,6,7,8-4[8:1],1,2-6[8:1],3,
{8},,,
5-2[8:1]*-8[8:1],,5,,,
1/5,1>5[4:1]/5,,5q1[4:1],,1q5[4:1],,5<1[4:1],,1p5[8:3]*q5[8:3],,,,,,,
1/8,2/8<4[4:1],3/8,4p8[4:1],,8p4[4:1],,4>8[4:1],,8p4[8:3]*q4[8:3],,,,,,,
1/5,1>5[4:1]/5,,5q1[4:1],,1q5[4:1],,5<1[4:1],,1w5[8:3],,,,,,,
3h[4:1]/7h[4:1],,,2/6,
{16}5,4,3,2,1-5[8:1],8,7-3[8:1],6,,,,,,,
{8}4-1[8:1]*-7[8:1],,4,,,
2^5[8:1]/8,,2,8-4[8:1],,8,3,,
7^4[8:1]/1,,7,1-5[8:1],,1,6,,
2^5[8:1]/8,,2,8-4[8:1],,8,3,,
2-5[8:1],1-6[8:1],2,1,,5,4/7,,
7^4[8:1]/1,,7,1-5[8:1],,1,6,,
2^5[8:1]/8,,2,8-4[8:1],,8,3,,
7^4[8:1]/1,,7,1-5[8:1],,1,6,,
7-4[8:1],8-3[8:1],7,8,,4,2/5,,
2^5[8:1],,2,8^3[8:1],,8,4,,5-2[8:1],6-1[8:1],5,6,,2,3/8,,
7^4[8:1],,7,1^6[8:1],,1,5,,4-7[8:1],3-8[8:1],4,3,,7,1/6,,
1/8,1v2[8:1]/8,,8v7[8:1],,,,3/6,
{16}4,5,4,5,{8}4,,,7,8,7,2,1^6[8:1],2,
{4}1^4[8:1],1-6[8:1],1-4[8:1],1-7[8:1],
{16}1,,2,3,4,5,6,7,8,1,
{1}2>8[4:11]/7<1[4:11],,,,
{8}
1/2,,,7/8,,,,3/4,,,,5/6,,,,,
4/5,,,3/6,,,,2/7,,,1h[2:1]/8h[2:1],,,,,,
{96}2,1,{48},,,,,{8},,{96}7,8,{48},,,,,{8},,,
{96}4,3,{48},,,,,{8},,,{96}5,6,{48},,,,,{8},,,,
{96}4,5,{48},,,,,{8},,{96}3,6,{48},,,,,{8},,
{96}2,7,{48},,,,,{8},,,,{96}1h[4:1],8h[96:23],{48},,,,,{8},,,,
{96}2,1,{48},,,,,{8},,7/8,,,,{96}3,4,{48},,,,,{8},,,5/6,,,,,
{96}4,5,{48},,,,,{8},,3/6,,,,{96}2,7,{48},,,,,{8},,1h[2:1]/8h[2:1],,,,,,
1/2,3,4,5/6,,1/8,7,5/6,,3/4,2,1/8,,
2,4,2,7,5,7,4/5,3/6,2/7,1h[8:5]/8h[8:5],,,,,,
{16}1,8,1,8,{8}2b/7b,,2-5[8:1],7-4[8:1],2,7,,1,8,
7^5[8:1],1,7,,2^4[8:1],8,2,7,6h[4:1],5,5,,4b/7b,,
{16}
3,4,5,6,7,8,1/5,4,3,2,1,
4/8,3/7,2/6,1/5,,
4^7[8:1]/8^3[8:1],,,,4/8,,,,,,
3/6,,4-1[8:1]/5-8[8:1],,,,4/5,,,,2b/7b,,,,
6,5,4,3,2,1,8/4,5,6,7,8,
1/5,2/6,3/7,4/8,,
1^6[8:1],,,,1^4[8:1],,,,1-6[8:1],,,,1,,,,
3,4,5,6,7,8,1/5,4,3,2,1,8,7,6,
5/2,,3,4,3,,2/7,,6,5,6,,4,5,4,5,
3/6,,7,8,7,,3/6,,2,1,2,,8,1,8,1,
2/7,,6,5,6,5,7,,3,4,3,4,2,,
1-4[8:1]/8,,,,8-3[8:1]/1,,,,
1-6[8:1]/8,,,,1b/8,,,,,,
{8}4/6,4v3[8:1]/6,,6v7[8:1],,,,2/8,
{16}1,1,1,1,{8}1,,,7,8,7,2,1^6[8:1],2,
{4}1^4[8:1],1-6[8:1],1-4[8:1],1-7[8:1],
{16}1,,2,3,4,5,6,7,8,1,
{8}
2/7^4[8:1],,7,1q5[8:1],,1,8,7,
6/2^5[8:1],,2,8p4[8:1],,8,1,2,
3/7^4[8:1],,7,1q5[8:1],,1,8,7,
6/2^5[8:1],,2,8p4[8:1],,8,1,2,
3/4,3v2[8:1]/4,,4v5[8:1],,,,1/6,
{16}7,8,7,8,{8}7,,,3,4,3,6,5^2[8:1],6,
{4}5^8[8:1],5-2[8:1],5-8[8:1],5-3[8:1],
{16}5,,6,7,8,1,2,3,4,5,
{1}
2pp2[4:5]/6pp6[4:5],,
2^5[4:5]/6p7[4:5],,
5s1[4:5]/7<2[4:5],,
{16}
4/5,,4/5,,3/6,,3/6,,2/7,,2/7,,1/8,,1/8,,
1,8,2,7,1,8,2,7,1,8,2,7,
1-5[8:1]*s5[8:1],8,2,7,
{1}
,
,
,
E
Re:MASTER
- 例の地帯何分かわからなかったので64分で配置してます。そこ以外ももちろんですが、修正等あればおねがいします。 -- 名無しさん (2018-04-19 23:59:30)
- MASTER譜面の64分→96分の箇所の修正、SLIDEの速度の修正を行いました。 -- けもがみ (2026-05-06 19:41:38)
最終更新:2026年10月04日 08:51