EASY
BASIC
ADVANCED
EXPERT
MASTER
(160){16}
7/8-4[8:1],,,,8,1,,1,,,
6/8,,2,1,3,8,4,,5/6,,2,4,2,,
4-8[8:1]/5-7[8:1],,3/6,,4/5,,,,
2/1-5[8:1],,,,1,8,,8,,,
1/3,,7,8,6,1,5,,3/4,,7,5,7,,
4-2[8:1]/5-1[8:1],,3/6,,4/5,,,,
8h[16:3]/6,,,
7h[16:3],,,6h[16:3],,,
5h[16:3],,,4h[4:1],,,,
1h[16:3],,,2h[16:3],,,
3>6[4:1],,,,,,,,,,
{32}
1,2,3,4,5,6,7,8,
1,2,3,4,5,6,7,8,
1,2,3,4,5,6,7,8,
1,2,3,4,5,6,7,8,
{4}1b/5b,,
3-8[8:1]/7-4[8:1],3/7,
{16}
2/6,,7,8,,6,2,,3/7,,2,1,,3,7,,
1/6,,7,8,,5,1,,3/8,,2,1,,4,8,,
1-5[8:1]/6-8[8:1],,,1/6,,,,,
3-1[8:1]/8-4[8:1],,,3/8,,,,,
1/6,,7,8,,5,1,,3w7[8:1],,,,3b,,,,
1/2,,2,3,,3,4,,4,5,,5,6,,7/8,,
7,,7,6,,6,5,,5,4,,4,3,,1/2,,
{8}
2q6[8:1],2,7p3[8:1],7,
1q5[8:1],1,8p4[8:1],8,3,
{32}3,2,
{16}1,7,1,7,1,8w4[8:1],,,,8b,,,,
2,1,2-5[8:1],1h[16:3],,,,,
7,8,7-4[8:1],8h[16:3],,,,,
2,8,2-6[8:1],8h[16:3],,,,,
7,1,7-3[8:1],1h[16:3],,,,,
2,8,1-5[8:1],7h[16:3],,,,,
7,1,8-4[8:1],2h[16:3],,,,,
2,8,1-5[8:1],7h[16:3],,,,,
7,1,8,2,6,4,5,3,
7,1,6-2[8:1],8h[16:3],,,,,
1,8,3-7[8:1],1h[16:3],,,,,
8,1,6-1[8:1],8h[16:3],,,,,
2,8,3-8[8:1],1h[16:3],,,,,
7,1,7,1,8b,,,,
3,5,3,5,2/4,,2/4,,8,,1/3,1/3,,
4/8,,5-1[8:1]/7-3[8:1],,,,,,,,,
6-8[8:1],,8-4[8:1],8,,,2,,
3-1[8:1],,1-5[8:1],1,,,7,,
6-8[8:1],,8-4[8:1],8,,,2,,
3-1[8:1],,1-5[8:1],1,,,7,,
6-1[8:1],,1-5[8:1],1,,,4,,
3-8[8:1],,8-4[8:1],8,,,5,,
6-1[8:1],,1-5[8:1],1,,,4,,
2,4,3,5,4,6,5,7h[4:1],,,
{32}8,1,2,3b/6b,
{16},,,,
3^8[8:1],,8-4[8:1],8,,,5,,
6^1[8:1],,1-5[8:1],1,,,4,,
3^8[8:1],,8-4[8:1],8,,,5,,
7,6,5,4h[16:3],,,
2,3,4,5h[16:3],,,
7,6,5,4,3,2,1,8<1[4:1],
,,,,,,,,,,,,
{8}
8^5[8:1]/4b,,{32}4,3,2,1,{8},,5,2/6,7,8,1/5,2,3,
4^1[8:1]/8b,,{32}8,7,6,5,{8},,1,4/8,7,6,1/5,4,3,
2^7[8:1]/6b,,{32}6,5,4,3,{8},,7,4/8,1,2,3/7,4,5,
6^3[8:1]/2b,,{32}2,1,8,7,{8},,3,2/6,1,8,3/7,6,5,
{16}
4/6,,7,8,7,,3/8,,2,1,2,,
6^3[8:1]/1,,7,,8,,1^6[8:1],,2,,3,,
4,,2,1,2,,1/6,,7,8,7,,
3^6[8:1]/8,,2,,1,,8^3[8:1],,7,,6,,
5,,7,8,6,,3/8,,2,1,3,,
1^6[8:1]/6,,2,,3,,4^1[8:1],,5,,6,,
7,,2,8,4,,1/6,,7,1,5,,
3/8,,1/6,,3-6[8:1]/7-2[8:1],,3/7,,,,,,
4b/8b,,2,1,,1,,2/8,,,7/8,,1/6,,2,4,2,,1/3,,
2/8-5[8:1],,8-3[8:1],,8-4[8:1],,,,,,,,
1/5,,7,8,,8,,1/7,,,1/2,,2/8,,7,5,7,,6/8,,
7/1-4[8:1],,1-6[8:1],,1-5[8:1],,,,,,,,
3/7,,3,4,,7/8,,1/6,,,2/4,,5/7,,3,4,3,,5/6,,
7/8-4[8:1],,1-5[8:1],,8^3[8:1],,1,,8,,,,
2/6,,6,5,,1/2,,3/8,,,2/4,,5/7,,6,5,6,,3/4,,
2/1-5[8:1],,8-4[8:1],,1^6[8:1],,8,,1,,,,
1h[16:3]/3,,,
2h[16:3],,,3h[16:3],,,
4h[16:3],,,5h[4:1],,,,
8h[16:3],,,7h[16:3],,,
6h[16:3],,,5h[16:3],,,
4h[4:1],,,,1h[16:3],,,
3h[16:3],,,4h[16:3],,,
5h[16:3],,,7h[4:1],,,,
8h[16:3],,,6h[16:3],,,
5h[16:3],,,4h[16:3],,,2,,,,
1/8,,1,,1/2,,2,,2/3,,3,,3/4,,4,,
4/5,,5,,5/6,,6,,6/7,,7,,7/8,,8,,
1,1,2,2,3,3,4,4,5,5,6,6,7,7,8,8,
{32}
1,2,3,4,5,6,7,8,1,2,3,4,5,6,7,8,
1,2,3,4,5,6,7,8,1,2,3,4,5,6,7,8,
{1}1bq3[8:5]/5bq7[8:5],
{16}1,,4,6,3,7,2,8,
{32}1w5[8:1],2,3,4,5,6,7,8,
{16}1b,,,,
2/8,,1,7,2,6,3,5,4-8[8:1],,6,6,,7,7,,
1/7,,8,2,7,3,6,4,5-1[8:1],,3,3,,2,2,,
5/6,,5,7,4,6,3,5,2-6[8:1],,6,6,,7,7,,
3/4,,4,2,5,3,6,4,7-3[8:1],,3,3,,2,2,,
1/2,,4,6,3,7,2,8,1-5[8:1],,7,7,,6,6,,
4/6,,5,3,6,2,7,1,8-4[8:1],,2,2,,3,3,,
7/8,,8,6,1,7,2,8,3-7[8:1],,7,7,,6,6,,
6h[8:1]/8h[8:1],,,1h[8:1]/3h[8:1],,,
4h[8:1]/5h[8:1],,,2b/7b,,8,1,7,2,6,
3/7,,8,8,4,4,7,7,3,,3/5,3/5,,7,8,1,2/6,,
1,1,5,5,2,2,6,,4/6,4/6,,2,1,8,
3/7,,8,8,2,2,3,3,4-8[8:1],,1,1,,5,5,,
2/6,,1,1,7,7,6,6,5-1[8:1],,8,8,,4,4,,
2/8,,8,7,6,5,4,,1/7,,1,2,3,4,5,,
2/8,,1/2,3/8,4/7,,1/8,2/7,
3/6,,7/8,1/6,2/5,,1/8,2/7,
3/6,,3/6,,2/7,,2/7,,1/8,,1/8,,1,8,1,8,
1-5[8:1],,,8-4[8:1],,,
2-6[8:1],,,7-3[8:1],,,1b,,,,
7,8,7^4[8:1],8h[16:3],,,,,
2,1,2^5[8:1],1h[16:3],,,,,
7,1,7^4[8:1],1h[16:3],,,,,
2,8,2^5[8:1],8h[16:3],,,,,
7,1,8^5[8:1],2h[16:3],,,,,
2,8,1^4[8:1],7h[16:3],,,,,
7,1,8^5[8:1],2h[16:3],,,,,
2,8,1,7,3,5,4,7,
2,8,3^8[8:1],1h[16:3],,,,,
7,1,6^1[8:1],8h[16:3],,,,,
2,8,3^8[8:1],1h[16:3],,,,,
7,1,6^1[8:1],8h[16:3],,,,,
2,3,4,5h[16:3],,,
7,6,5,4h[16:3],,,
2,3,4,5,6,7,8,1,
{32}
7b,6,5,1b,2,3,
{16}
8w4[8:1],8,,,8b,,,,
1h[16:3]/8,,,
7h[16:3],,,5h[16:3],,,
4h[16:3],,,2h[4:1],,,,
1h[16:3],,,3h[16:3],,,
4h[16:3],,,7h[16:3],,,
8h[4:1],,,,1h[16:3],,,
7h[16:3],,,6h[16:3],,,
4h[16:3],,,3h[4:1],,,,
1h[16:3],,,2h[16:3],,,
4h[16:3],,,6h[16:3],,,
{1}
8,,,E
Re:MASTER
最終更新:2026年10月04日 21:00