EASY
(70){2}
1h[4:7],8h[4:5],2h[4:3],7h[4:1],8h[4:7],1h[4:5],7h[4:3],2h[4:1],
3h[4:7],6h[4:5],4h[4:3],5h[4:1],6h[4:7],3h[4:5],5h[4:3],4h[4:1],
1h[4:7],6h[4:5],2h[4:3],5h[4:1],8h[4:7],3h[4:5],7h[4:3],4h[4:1],
1b-3[8:3]*-4[8:3]/8b-5[8:3]*-6[8:3],,
{16},,,,,,,
{2}1h[8:7]/2h[8:7],3h[8:3]/8h[8:3],{16}7h[16:15]/8h[16:15],
{2},1h[8:3]/6h[8:3],3h[8:5]/6h[8:5],{8}4h[8:1]/5h[8:1],,
{8}1/8,2h[4:7]/7h[4:7],{1}3h[8:13]/6h[8:13],,,,,,,,,,E
BASIC
(70){2}
1h[4:7],5h[4:5],2h[4:3],6h[4:1],
8h[4:7],4h[4:5],7h[4:3],3h[4:1],
1h[4:7],4h[4:5],8h[4:3],5h[4:1],
8h[4:7],5h[4:5],1h[4:3],4h[4:1],
5h[4:7],7h[4:5],4h[4:3],8h[4:1],
4h[4:7],2h[4:5],5h[4:3],1h[4:1],
1b^4[2:1]*p4[2:1]/8b^5[2:1]*q5[2:1],,
{16},,,,,,,
{2}5h[8:7]/8h[8:7],1h[8:3]/4h[8:3],
{16}1h[16:15]/4h[16:15],,,,,,,,,
{2}5h[8:3]/8h[8:3],4h[8:5]/5h[8:5],
{8}3h[8:1]/6h[8:1],,1h[8:15]/8h[8:15],2h[4:7]/7h[4:7],
{1}3h[8:13]/6h[8:13],,,,,,E
ADVANCED
(70){4}
2h[4:7]/8,8,1,1,2b,2b,3,3,
7h[4:7]/1,1,8,8,7b,7b,6,6,
2h[4:7],6/7,7/8,1/8,1/2b,2b/3,3/4,4/5,
7h[4:7],2/3,1/2,1/8,7b/8,6/7b,5/6,4/5,
1h[4:7]/7,,3h[4:5]/7,8,1b,2,3b,4,
8h[4:7]/2,,6h[4:5]/2,1,8b,7,6b,5,
{1024}
1b-3[8:3]*-4[8:3]/1-5[8:3]*-6[8:3],
8b-3[8:3]*-4[8:3]/8-5[8:3]*-6[8:3],,,{256},,,{64},,,{16},,,{4},,,
{16},,,,,,,
{4}2h[8:7]/7,3h[8:5]/6,{8}1/2b,3b/4,1/2b,3b/4,
{16}7h[16:15]/2,,,,,{4}6h[8:5]/3,{8}7b/8,5/6b,7b/8,5/6b,
2h[8:5]/7h[8:5],,2b/7b,2b/7b,3h[8:1]/6h[8:1],,
1h[8:15]/8h[8:15],2h[4:7]/7h[4:7],3h[8:13]/6h[8:13],
{1},,,,,E
EXPERT
(70){8}
2h[4:7]/8,,1,,2,2,2,,4,,3,,2,2,2,,
7h[4:7]/1,,8,,7,7,7,,5,,6,,7,7,7,,
{4}1h[4:7]/8,2h[2:3]/7,{2}3h[4:5]/6,2-5[8:1]*-6[8:1],2-6[8:1]*-7[8:1],
{4}8h[4:7]/1,7h[2:3]/2,{2}6h[4:5]/3,7-3[8:1]*-4[8:1],7-2[8:1]*-3[8:1],
{4}1h[4:7]/5,2h[2:3]/6,{2}3h[4:5]/7,2bp4[8:1]*V85[8:1],2bq8[8:1]*V47[8:1],
{4}8h[4:7]/4,7h[2:3]/3,{2}6h[4:5]/2,7bq5[8:1]*V14[8:1],7bp1[8:1]*V52[8:1],
{1024}1b-3[8:3]*-4[8:3]/8b-6[8:3]*-4[8:3],1-5[8:3]/8-5[8:3],
{512},,,{128},,,{32},,,{16},{8},,{4},,,,
{4}2h[4:3]/7h[4:3],2v4[8:3]*v5[8:3]/7v1[8:3]*v8[8:3],3h[4:1]/6h[4:1],,{16},
{4}3h[4:3]/6h[4:3],3v4[8:3]*v5[8:3]/6v1[8:3]*v8[8:3],2h[4:1]/7h[4:1],,
{4}4h[2:1]/5h[2:1],4v1[8:1]*v2[8:1]/5v7[8:1]*v8[8:1],,
{8}1h[8:15]/8h[8:15],2h[4:7]/7h[4:7],3h[8:13]/6h[8:13],
{1},,,,,E
MASTER
(70)
{1024}0/2h[4:7],5/6,,,{256},,,{64},,,
{16},5/6,,2,3,2,1,2,,5/6,,2,3,2,1,2,,5/6,,2,3,2,1,2,,1,2,3,,,,
{1024}0/7h[4:7],3/4,,,{256},,,{64},,,
{16},3/4,,7,6,7,8,7,,3/4,,7,6,7,8,7,,3/4,,7,6,7,8,7,,8,7,6,,,,
{4}
2h[4:3]/8h[4:3],4h[2:1]/6h[2:1],2/8,2/8,
1h[4:3]/7h[4:3],3h[2:1]/5h[2:1],1/7,1/7,
{8}
2h[4:3]/8h[4:3],,4h[2:1]/6h[2:1],,2/8,2/8,2/8,,
1h[4:3]/7h[4:3],,3h[2:1]/5h[2:1],,1/7,1/7,1/7,,
7h[4:3],6h[8:5],5h[2:1],4h[8:3],3h[4:1],,,,
2h[4:3],3h[8:5],4h[2:1],5h[8:3],6h[4:1],,,,
2h[4:3],1h[8:5],8h[2:1],7h[8:3],6h[4:1],,,,
7h[4:3],8h[8:5],1h[2:1],2h[8:3],3h[4:1],,,,
{1024}4b-2[8:3]*-1[8:3]/4-8[8:3]*-7[8:3],5b-2[8:3]*-1[8:3]/5-8[8:3]*-7[8:3],
{512},,,{128},,,{32},,,{16},{8},,{4},,,,
{1024}0/1-5[8:5],2h[8:5]/8h[8:5],{512},,,{128},,,{32},,,{8},
4h[8:3]/6h[8:3],,2/8,2/8,,,{16},
{1024}0/8-4[8:5],1h[8:5]/7h[8:5],{512},,,{128},,,{32},,,{8},
3h[8:3]/5h[8:3],,1/7,1/7,,,
{1024}1-4[8:3]*p4[8:3]/8-5[8:3]*q5[8:3],2h[8:3]/7h[8:3],{512},,,{128},,,{32},,,{8},
1h[8:1]/8h[8:1],,,,
{8}1h[8:15]/8h[8:15],2h[4:7]/7h[4:7],3h[8:13]/6h[8:13],
{1},,,,,E
Re:MASTER
&inote_6=(70){1},{12},
{21}8h[21:3],1h[21:3],2h[21:3],,,,,
{24},,,,1,1,8,8,7,7,
6p2[8:1],6,6,5,5,4,4,4,3,3,,,,,
{25}
5,5,4,4,4,5,2,2,2,6,
7,7,2,2,7,7,2,2,,,1h[25:5],,8h[25:3],2h[25:3],7h[25:2],
,,,,,,,,,,,4,4,3,3,
6,6h[25:4],,5,5,5,,,,2/7,
2/7,1/8,1/8,1h[25:2]/8h[25:2],,
2h[25:2]/7h[25:2],,1/8,2,2,2,7,3,3,
3,3,{250}3,4,5,6,,,,,,,
{25},,,,,,,,,7,7,7,2,
6,6,3,3,3,6,5,5,5,4,
,,,2/3,2h[25:11]/3h[25:11],
,8,8,8,7,7,8,8,,,
6/7,6h[25:4]/7h[25:4],,1,1,
1,2/3,2h[25:6]/3h[25:6],,1,
8,8,8,1,,
{24},,,
6h[24:1]/7h[24:1],2h[24:1]/3h[24:1],
6h[24:1]/7h[24:1],2h[24:1]/3h[24:1],
6/7,3,3,6,6,3,3,6,6,{16384}1h[12:1]/2h[12:1],7h[12:1]/8h[12:1],{24},
{25}
,,,,,,1/8,1h[25:2]/8h[25:2],,2/7,
2/7,2/7,1-3[32:1]/8-6[32:1],1/8,1/8,
1/8,1/8,1/8,1/8,,,,,,,
,,,,,,,,5,5,5,5,5,4,4,4,4,4,4,5,5,4,,,,
{24},,,,8h[6:1],1h[8:1],7,2,,,,,5,4,
{16384}5p3[2:1]*p6[2:1]/5q3[2:1]*q6[2:1],{24},
{16384}4p3[24:11]*p6[24:11]/4q3[24:11]*q6[24:11],{24},
6,7,2,5,4,,,,,,,,,,,
{28},,7,7,7h[14:1],,8,
8,8,1,2,2,2,1,
1,1,1/8,1/8,1/8,,,,
{16384}
4-2[8:3]*-1[8:3]/4-6[8:3]*-7[8:3],
5-3[8:3]*-2[8:3]/5-7[8:3]*-8[8:3],
4-8[8:3]/5-1[8:3],
{26},,,,,4/5,4/5,4/5,4/5,4/5,4/5,4/5,4/5,{21},
{8},,,,,1b/8b,2b/7b,3b/6b,
{21},
4/5,4/5,4/5,
{36}3/6,3/6,,,
{21}2/7,2/7,{32}1/8,1/8,2/7,
{16384}3/4,5/6,
{25},,,,,,,,
7h[25:3],8h[25:2],1h[25:1],2,
,,,,,
{36}
1h[9:1]/8h[9:1],,2/7,,2h[12:1]/7h[12:1],,1/8,1/8,,,,,,,,,,,,
{16384}2/3,{12}6/7,
{16384}1/4,{8}5/8,
{30},,,
2h[5:1],1,8,8,8,7,7h[6:1],8,1,1,1,2,,,,,,
{128}1b/8b,2b/7b,3b/6b,4b/5b,
{8},
1h[8:5]/8h[8:5],2h[2:1]/7h[2:1],3h[8:3]/6h[8:3],,,,
{24}
3/7,3/7,3/7,,3/7,3/7,3/7,3/7,,
{1}3<3[8:7]*>3[8:7]/7>7[8:7]*<7[8:7],,,,,,E
- エイプリルフール譜面だけに苦戦してしまって、特にRe:MASTERはかなり雑になってしまったので、譜面修正・整形可能で時間がある方はご助力ください。 -- Sea (2018-05-01 19:30:00)
- 一部の宴と同じく、仕様上タップ数に誤差が生じます。この辺もいい方法があれば…。 -- Sea (2018-05-01 19:30:00)
- レベルは実機上表記が「?」か「0」だったはずなので、maidata作成時に任意の値を入れれば良いかと。 -- Sea (2018-05-01 19:30:00)
- 参考に閲覧させていただいた動画 ESY:sm28548152 BSC:28575482 ADV:28589951 EXP:sm28556735 MAS:sm28556646 ReM:sm28556465 -- Sea (2018-05-01 19:30:00)
最終更新:2018年05月01日 19:38