アットウィキロゴ

猫祭り

アーティスト 箱部 なる(CV:M・A・O)

BPM EASY BASIC ADVANCED EXPERT MASTER Re:MASTER
160 3 4 9 11+ 13 -

EXPERT MASTER Re:MASTER
譜面制作者 LabiLabi 小鳥遊さん -

EASY

(160){4},{2}
8,8,8,,1,1,1,,8,8,8,,1,1,{1}1/8,8,7,6,5,4,3,2,1,
2h[1:1],,1h[1:1],,8h[1:1],,7h[1:1],,6-2[4:3],,
{4}
1,1,,,2,2,,,3,3,,,4,4,,,5,5,,,6,6,,,7,7,,,8b,,,,
8,8,,,7,7,,,6,6,,,5/4,,,,4,4,,,3,3,,,2,2,,,{1}1b,
2-6[4:3],,7-3[4:3],,2-6[4:3],,7-3[4:3],,
3h[1:1],,4h[1:1],,5h[1:1],,6h[1:1],,
{2}6,6,5,,4,4,3,,3,3,4,,5,5,6,,5-8[4:3],,,,
{4}
8,8,8,,7,7,7,,6,6,6,,4/5,,,,4,4,4,,3,3,3,,2,2,2,,1b,,,,
1,1,1,,2,2,2,,3,3,3,,4,4,4,,5,5,5,,6,6,6,,7,7,7,,8b,,,,
{2}8,8,7,7,6,6,4/5,,4,4,3,3,2,2,1/8,
{1}1/8,,,,E

BASIC

(160){4},
1,,1,,2,2,2,,3,,3,,4,4,4,,
5,,5,,6,6,6,,7,,7,,8,8,1/8,,
{2}
7h[2:1],,6,6,5h[2:1],,4,4/5,
3h[2:1],,2,2,1h[2:1],,8,8,
{1}
1-4[4:3],,8-5[4:3],,4-1[4:3],,5-8[4:3],,1h[1:1]/8h[1:1],
{4},,1b/8b,,
1,1,1,,2,2,1/2,,3,3,3,,4,4,4/5,,
5,5,5,,6,6,5/6,,7,7,7,,8,8,1/8,,
7,7,7,,6,6,5/6,,5,5,5,,5,5,4/5,,
3h[2:1],,,,2h[2:1],,,,1,1,1,,1,1,1b/8b,,
2,,2,,3,4,3,,4,,4,,5,4,5,,
6,,6,,7,8,7,,8,,8,,1,8,1,,
{1}
2h[2:3],1h[2:1],7h[2:3],8h[2:1],6h[2:3],5h[2:1],
{2}4,4,{1}4h[2:1]/5h[2:1],
4-1[4:3],,5-8[4:3],,1-4[4:3],,8-5[4:3],,1h[1:1]/8h[1:1],
{4},,1b/8b,,
1,1,1,,2,2,1/2,,3,3,3,,4,5,4/5,,
5,5,5,,6,6,5/6,,7,7,7,,8,1,1/8,,
8,8,8,,7,7,7/8,,6,6,6,,5,4,4/5,,
4h[2:1],,,,3h[2:1],,,,
2,2,2,,1/8,1/8,1b/8b,,
2,2,1/2,,3,3,3/4,,4,4,4/5,,6,6,5/6,,
7,7,7/8,,1,1,1/8,,8,8,1,1,
{1}1h[4:3]/8h[4:3],,,,E

ADVANCED

(160){4}8b,
2,2,1,1,8,7,1/6,,7,7,8,8,1,2,3/8,,
3,3,4,4,5,6,4/7,,5,5,4,4,3,2,1,2b/8b,
7,7,6/8,,2,2,1/3,,7,7,8,8,1,8,2/7,,
3,3,2/4,,6,6,5/7,,3/4,,5/6,,4/5,3/6,2/7,1b/8b,
7h[2:1],,8,,6,5,4/7,,2h[2:1],,1,,3,4,2/5,,
{2}
6h[2:1],5,3h[2:1],4,5h[2:1]/7h[2:1],,2h[2:1]/4h[2:1],,
3V14[4:3]/6V85[4:3],,,
{4}3/6,1/8,
3,4,2/5,7b/8b,3/6,1/2,3/6,7/8,
6,5,4/7,1b/2b,3/4,5/6,3/4,,
4,5,3/6,1b/8b,3/4,5/6,4/7,,
2/4,,5/7,,4/5,3/6,2/7,1b/8b,
2,1/2,3/4,1b/6b,2/7,3/4,2/7,5/6,
7,7/8,5/6,3b/8b,5/6,3/4,2/5,,
6h[4:1],5,3h[4:1],4,6h[4:1],5,4/7,,
6,7,1/8,1/8,3,2,1/8,2b/7b,
8,8,7,7,6,5,4/7,,1,1,2,2,3,4,2/5,,
5,5,6,6,7,8,1/6,,5,5,4,4,3,2,1,2b/8b,
{1}1-5[4:1]/7,8-4[4:1]/2,1-5[4:1]/7,{4}6,5,3,4,
{1}5-1[4:1]/3,4-8[4:1]/6,1h[2:1]/8h[2:1],
{4}2/7,3/6,4/5,2b/7b,
3h[2:1],,4h[2:1],,3,3,2/5,,6h[2:1],,5h[2:1],,6,6,4/7,,
2h[2:1],,1h[2:1],,2,2,{2}3/8,8h[2:1],1h[2:1],8,2/7,
3V14[4:3]/6V85[4:3],,,
{4}3/6,1/8,
3h[4:1],4,2/5,7b/8b,3/6,1/2,3/6,7/8,
6h[4:1],5,4/7,1b/2b,3/4,5/6,2/4,,
5h[4:1],4,3/6,1b/8b,3/4,5/6,4/7,,
2/4,,5/7,,4/5,3/6,2/7,1b/8b,
1h[4:1],2,3/4,7b/8b,4/5,1/2,4/5,7/8,
6h[4:1],5,4/7,1b/2b,7/8,1/6,2/5,,
7h[4:1],8,2h[4:1],1,7h[4:1],8,1/6,2/5,
3h[4:1]/4h[4:1],,5h[4:1]/6h[4:1],,
3/6,2/7,1/8,2b/7b,
3,4,5,4/6,7,6,4/5,,
6,5,4,3/5,2,3,4/5,,
2,1,8,1/7,6,7,1/8,,
7,8,1,2/8,3,2,1/8,
{1}2b/7b,,,,E

EXPERT

(160){8}2b/7b,,
3/4,,1,,3,3,3/4,,5h[4:1],,6h[4:1],,7h[4:1],,8b,,
5/6,,8,,6,6,5/6,,4h[4:1],,3h[4:1],,2h[4:1],,1b,,
3/4,,1,,3,3,{4}3/4,6h[4:1],7h[4:1],8h[4:1],1b,
4/5,7/8,4/5,1/2,5h[2:1]/3b,2b,1b,2b/7b,
{8}
6,5,6,,3,4,3,,7h[4:3],,4,,5,,6,,
3,4,3,,6,5,6,,2h[4:3],,6,,5,,4,,
7,8,7,,2,1,2,,6h[4:3],,1,,8,,7,,
{4}3/8,,1/6,,4/5,3/6,2/7,1b/8b,
{1}
7h[2:1]/8^3[4:1],2h[2:1]/1^6[4:1],
7h[2:1]/8^3[4:1],2h[2:1]/1^6[4:1],
5h[2:1]/6^1[4:1],4h[2:1]/3^8[4:1],
5h[2:1]/6^1[4:1],4h[2:1]/3^8[4:1],
1b>8[4:3]/8b<1[4:3],{4},,4b/5b,2b/7b,
{16}4h[16:3],,,2h[16:3],,,1,,{4}1,1b/6b,7/8,1/2,1/6,3/8,
{16}5h[16:3],,,7h[16:3],,,8,,{4}8,3b/8b,1/2,7/8,1-6[8:1]/2,,
{16}3h[16:3],,,1h[16:3],,,8,,{4}8,1b/8b,1/2,7/8,3/8,1/6,
2h[4:1]/4h[4:1],,5h[4:1]/7h[4:1],,{16}3/6,,,4/5,,,3/6,,{4}3/6,1b/8b,
6-1[8:1],5-2[8:1],6-1[8:1],5-2[8:1],6-1[8:1],5-2[8:1],6-1[8:1],5,
3-8[8:1],4-7[8:1],3-8[8:1],4-7[8:1],3-8[8:1],4-7[8:1],3-8[8:1],4,
5-8[8:1]/6,,4-1[8:1]/3,,{8}3,3,4,4,5,5,6,6,
7h[4:1]/8h[4:1],,,,1h[4:1]/2h[4:1],,,,{16}2/7,,,4/5,,,{8}3/6,3/6,,1b/8b,,
6,6,5/6,,3,3,3/4,,5h[4:1],,6h[4:1],,7h[4:1],,8b,,
3,3,3/4,,6,6,5/6,,4h[4:1],,3h[4:1],,2h[4:1],,1b,,
6,6,5/6,,3,3,3/4,,6h[4:1],,7h[4:1],,8h[4:1],,1b,,
3,3,3/4,,6,6,5/6,,{4}5h[2:1]/3b,2b,1b,2b/7b,
6h[2:3]/3h[4:1],,4h[4:1],,5,5,5,,3h[2:3]/6h[4:1],,5h[4:1],,4,4,4,,
7h[2:3]/2h[4:1],,1h[4:1],,8,8,8,,7/8,,1/2,,4/5,3/6,2/7,1b/8b,
{1}
3>7[4:1]/5h[2:1],6<2[4:1]/4h[2:1],3>7[4:1]/5h[2:1],6<2[4:1]/4h[2:1],
3<7[4:1]/1h[2:1],6>2[4:1]/8h[2:1],3<7[4:1]/1h[2:1],6>2[4:1]/8h[2:1],
4b>5[4:3]/5b<4[4:3],{4},,4b/5b,2b/7b,
{16}1h[16:3],,,8h[16:3],,,{8}6,6,,1b/5b,,2,2,1/3,,7,7,6/8,,
{16}8h[16:3],,,1h[16:3],,,{8}3,3,,4b/8b,,7,7,6/8,,1/2-5[8:1],,,,
{16}1h[16:3],,,8h[16:3],,,{8}6,6,,1b/5b,,2,2,1/3,,7,7,6/8,,
{2}2h[4:1]/4h[4:1],5h[4:1]/7h[4:1],{16}2/7,,,4/5,,,3/6,,{4}3/6,1b/8b,
4-2[8:1],5-7[8:1],4-1[8:1],5-8[8:1],4-3[8:1],5-7[8:1],4-1[8:1],8,
5-6[8:1],4-2[8:1],5-8[8:1],4-1[8:1],5-6[8:1],4-2[8:1],5-8[8:1],1,
4-1[8:1]/3,,5-8[8:1]/6,,{8}2,2,1,1,8,8,7,7,
{4}1^4[2:1]/8^5[2:1],,,1/8,{16}2/7,,,4/5,,,{8}3/6,3/6,,1b/8b,,
7,7,7/8,,2,2,1/2,,7,7,4,4,5,,1b/7b,,
2,2,1/2,,7,7,7/8,,2,2,5,5,4,,2b/8b,,
7,7,7/8,,2,2,1/2,,6,6,3,3,5,,1b/7b,,
{4}7/8,5/6,3/4,1/2,5h[2:1]/3b,2b,1b,
{1}2b/7b,,,,E

MASTER

(160){4}2b/7b,
5-8[8:1],4-1[8:1],5-7[8:1],4-2[8:1],5pp4[4:1],3,{8}2,1b,{4}1b,
4-1[8:1],5-8[8:1],4-2[8:1],5-7[8:1],4qq5[4:1],6,{8}7,8b,{4}8b,
5-8[8:1],4-1[8:1],5-7[8:1],4-2[8:1],5pp4[4:1],3,{8}2,1b,{4}1b,
4w8[8:1],,5w1[8:1],,8h[2:1]/3b,2b,1b,2b/7b,
{8}
4h[2:1],,5,6,7h[2:1],,6,5,4h[4:1],5,6h[4:1],5,3h[4:1],4,5h[4:1],4,
2h[2:1],,3,4,5h[2:1],,4,3,2pp3[8:1],,8qq7[8:1],,1pp2[8:1],,8b,,
5h[2:1],,4,3,2h[2:1],,3,4,5h[4:1],4,3h[4:1],4,6h[4:1],5,4h[8:1],5,
{4}5h[4:1]/7h[4:1],,2h[4:1]/4h[4:1],,7-2[8:1]/5,3-6[8:1]/7,1/3,2b/7b,
{8}
3q5[2:1],,7,,6,,7,,6p4[2:1],,2,2,3,,2,,
3>6[4:3],,6,,5,,4,,3>6[4:3],,6,,5,,4,,
3qq5[2:1],,7,,6,,7,,6pp4[2:1],,2,2,3,,2,,
{4}2^5[8:1],6,7^4[8:1],3,1h[4:3],,8h[4:1],,{1}2b>8[4:3]/7b<1[4:3],
{4},4-1[8:1]/5-8[8:1],4b/5b,3b/6b-8[8:1],
{8}
5-1[8:1],,6-8[8:1],,5,4b,4b-8[8:1]/8b,,5-1[8:1],,4-8[8:1],,5,,3-1[8:1]/7,,
4-8[8:1],,3-1[8:1],,4,5b,5b-1[8:1]/1b,,4-8[8:1],,5-1[8:1],,4,,6b-8[8:1]/2b,,
5-1[8:1],,6-8[8:1],,5,4b,4b-8[8:1]/8b,,5-1[8:1],,4-8[8:1],,5,,
{4}3v4[4:1]/7V15[4:1],,,2-8[8:1]*V46[8:1],,{16}1/3,,,6/8,,,4/5,,{4}4/5,2b/7b,
4-2[8:1]/5-1[8:1],4-8[8:1]/5-7[8:1],4-2[8:1]/5-1[8:1],
4b-8[8:1]/5b-7[8:1],4-2[8:1]/5-1[8:1],4/5,3b/8b,
4b-2[8:1]/5b-1[8:1],4-8[8:1]/5-7[8:1],4-2[8:1]/5-1[8:1],4-8[8:1]/5-7[8:1],
4b-2[8:1]/5b-1[8:1],4-8[8:1]/5-7[8:1],4-2[8:1]/5-1[8:1],4/5,2b/7b,
3h[4:1]/7h[4:1],,1h[4:1]/5h[4:1],,
{8}1/5,2/6,3/7,4/8,1^6[8:1]/5^2[8:1],,1/5,,4/5,3,4/5,6,4/5,2/4,4/5,5/7,
{16}1/8,,,4/5,,,2/7,,
{4}2-6[8:1]/7-3[8:1],2b/7b,
4-1[8:1]/5,5-8[8:1]/4,4-2[8:1]/5,5pp4[4:1]/4,4>5[4:1]/5,2,{8}3,1b,{4}1b,
5-8[8:1]/4,4-1[8:1]/5,5-7[8:1]/4,4qq5[4:1]/5,5<4[4:1]/4,7,{8}6,8b,{4}8b,
4-1[8:1]/5,5-8[8:1]/4,4-2[8:1]/5,5pp4[4:1]/4,4>5[4:1]/5,2,{8}3,1b,{4}1b,
5w1[8:1],5,4w8[8:1],4,8h[2:1]/3b,2b,1b,2b/7b,
6h[4:3]/5h[8:3],,5h[8:1],5,3h[4:3]/4h[8:3],,4h[8:1],4,
{8}
6h[2:1],,5,4,3h[2:1],,4,5,6p2[8:1]*q2[8:1],,,,3p7[8:1]*q7[8:1],,,,
7h[4:3]/8h[8:3],,,,8,8,8,,2h[4:3]/1h[8:3],,,,1,1,1,,
{4}
7-2[8:1]/3-6[8:1],,4-1[8:1]/8-5[8:1],,2-7[8:1]/4,6-3[8:1]/2,6/8,2b/8b,
2-4[8:1],1-5[8:1],8-6[8:1],,7-5[8:1],8-4[8:1],1-3[8:1],,
6<3[4:3],3,4,5,6<3[4:3],3,4,5,6pp4[2:1],2,3,2,3qq5[2:1],{8}7,7,{4}6,7,
7^4[8:1],3,2^5[8:1],6,8h[4:3],,1h[4:1],,
{8}2b/7b,3,4/5,6,2/7,{24}3,5,3,5,,,4,,,2/7,,,6,4,6,
{8}4-1[8:1],5,5-8[8:1]/4b,,3b-1[8:1]/5b,,
4-8[8:1]/3,,3-1[8:1]/4,,3/4,5b,5b-1[8:1]/1b,,4-8[8:1]/5,,5-1[8:1]/4,,4/5,,6-8[8:1]/2,,
5-1[8:1]/6,,6-8[8:1]/5,,5/6,4b,4b-8[8:1]/8b,,5-1[8:1]/4,,4-8[8:1]/5,,4/5,,3b-1[8:1]/7b,,
4-8[8:1]/3,,3-1[8:1]/4,,3/4,5b,{4}5b-1[8:1]/1b,4-8[8:1]/5,5-1[8:1]/4,4/5,
4v5[4:1]/8V26[4:1],,,1-7[8:1]*V35[8:1],,
{16}1/3,,,6/8,,,4/5,,{4}4/5,2b/7b,
4-8[8:1]/5-7[8:1],4^2[8:1]/5p1[8:1],4-8[8:1]/5-7[8:1],4b-2[8:1]/5b-1[8:1],
4q8[8:1]/5^7[8:1],4/5,1b/6b,4bq8[8:1]/5b^7[8:1],
4-2[8:1]/5-1[8:1],4q8[8:1]/5^7[8:1],4^2[8:1]/5p1[8:1],4b-8[8:1]/5b-7[8:1],
4^2[8:1]/5p1[8:1],4q8[8:1]/5^7[8:1],4/5,2b/7b,
2h[4:1]/6h[4:1],,4h[4:1]/5h[4:1],,
{8}4/8,3/7,2/6,1/5,4^7[8:1]/8^3[8:1],,4/8,,
{16}4,5,4,5,3,6,3,6,2,7,2,7,1,8,1,8,
{32}2,3,4,5,6,7,8,1,2,3,4,5,6,7,8,1,
{4}2/7,1b/8b,
5-8[8:1]/6,5-2[8:1]/4,5^8[8:1]/6,5^2[8:1]/4,5-8[8:1]/6,5-1[8:1]/4,{8}5/6,8b,{4}8b,
4-1[8:1]/3,4-7[8:1]/5,4^1[8:1]/3,4^7[8:1]/5,4-1[8:1]/3,4-8[8:1]/5,{8}4/3,1b,{4}1b,
5-8[8:1]/6,5-2[8:1]/4,5^8[8:1]/6,5^2[8:1]/4,5-8[8:1]/6,5-1[8:1]/4,{8}5/6,8b,{4}8b,
4w8[8:1]/8,4,5w1[8:1]/1,5,8h[2:1]/3b,2b,1b,
{1}2b/7b,,,,E

Re:MASTER


名前:
コメント:

タグ:

+ タグ編集
  • タグ:
最終更新:2026年10月03日 22:53