|
EXPERT |
MASTER |
Re:MASTER |
| 譜面制作者 |
LabiLabi |
小鳥遊さん |
- |
EASY
(160){1},,,,1,1,8,8,
1,2,3,4,5,6,7,8,8,7,6,5,4,3,2,1,
2h[1:1],,3h[1:1],,4h[1:1],,
5h[1:1],,6h[1:1],,7h[1:1],,
8,1,1/8,1/8,
2-6[4:3],,7-3[4:3],,
3-6[4:3],,7-2[4:3],,
1,2,3,4/5,6,7,8,,
{4}
8,8,,,7,7,,,6,6,,,5,5,,,
4,4,,,3,3,,,2,2,,,1b,,,,
1,1,,,2,2,,,3,3,,,4,4,,,
5,5,,,6,6,,,7,7,,,8,,,,
{1}1-4[4:3],,5-8[4:3],,
{4}
8,8,8,,7,7,7,,6,6,6,,4/5,,,,
4,4,4,,3,3,3,,2,2,2,,1/8,,,,
1,1,1,,2,2,2,,3,3,3,,4/5,,4/5,,
{1}4/5,,,,,,E
BASIC
(160){1},,,,{4}
1,1,1,,8,8,8,,1,1,1,,8h[2:1],,,,
1,1,2,,3,4,3,,5,5,6,,7,8,7,,8h[2:1],,,,8,1,8,,1h[2:1],,,,1,8,1b,,
8,8,7,,6,5,6,,4,4,3,,2,1,2,,1h[2:1],,,,1,8,1,,8h[2:1],,,,8,1,8b,,
{1}
1-5[4:3],,7-3[4:3],,4-8[4:3],,6-1[4:3],,
{2}
1h[2:1],,1/2,1/2,3h[2:1],,3/4,3/4,
5h[2:1],,5/6,5/6,7h[2:1],,7/8,7/8,
{1}
8b,8,8-4[4:3],,1,1,1-5[4:3],,
{2}
8,1/8,8,1/8,1,1/8,1,1/8,
1h[2:1]/8h[2:1],,1/8,1/8,1-4[4:3]/8-5[4:3],,,,
{4}
3,3,3/4,,6,6,5/6,,4,4,5,5,4,4,4/5,,
6,6,5/6,,3,3,3/4,,5,5,4,4,5,5,4/5,,
4,4,3,3,1/2,1/2,1/2,,
8,8,7,7,5/6,5/6,5/6,,
5,5,6,6,7,7,8,8,
{1}1h[1:1],,1/2,7/8,1h[1:1]/8h[1:1],,
{2}2-5[4:3],,,6,7-4[4:3],,,3,3/4,5/6,3/4,5/6,
{4}3/4,3/4,5/6,5/6,3/4,3/4,5/6,5/6,
4,4,3,3,2,2,1,1,8,8,7,7,6,6,5,5,
{1}4b,,,,,,E
ADVANCED
(160){4}
4,4,4,4,4,4,4/5,,5,5,5,5,5,5,4/5,,
6,6,5,,3,3,4,,5,5,4,4,4h[2:1]/5h[2:1],,,,
3,3,4,4,5,5,4/6,,6,6,5,5,4,4,3/5,,
2,2,1/2,,7,7,7/8,,8,1,2/7,,1h[4:1]/8h[4:1],,2b/7b,,
3,4,3/4,,6,5,5/6,,3,3,4,4,3,4,2/5,,7,8,7/8,,2,1,1/2,,
{2}
3h[4:1]/4h[4:1],5h[4:1]/6h[4:1],4h[4:1]/5h[4:1],{4}4/5,3bV14[4:3]/6bV85[4:3],,,,,
{2}
6h[2:1],5,3h[2:1],4,6h[2:1],5,{4}4/5,4/5,3/6,,
2,2,1/2,,7,7,7/8,,1,8,1,2V41[4:3]/7V58[4:3],,,,,
{2}
2h[2:1],1,7h[2:1],8,2h[2:1],1,{4}1/8,1/8,2/7,,
3,3,2/4,,6,6,5/7,,5,5,4,4q2[1:1],
{2},,,1/3,8q6[4:3],,,5/7,4qq2[4:3]/5pp7[4:3],,,1/8,2h[1:1]/7h[1:1],,,1/8,
2h[2:1],3h[2:1],4,4/5,7h[2:1],6h[2:1],5,4/7,
2h[2:1],1h[2:1],8h[2:1],7,1-4[2:1]/8-5[2:1],,3/6,,
{4}
3,3/4,6,5/6,2,1/2,3/8,,6,5/7,{8}6,6,6,,3,,2/4,,3,3,{4}3,
7,7/8,2,1/2,6,5/6,4/7,,2,1/3,{8}2,2,2,,{4}1/8,2/7,3b/6b,,
2,3,4/5,3/6,7,7/8,1/6,,7,6,4/5,3/6,2,1/2,3/8,,
7/8,1/6,2/5,,1/2,3/8,4/7,,6,5/7,3,2/4,1,8,2/7,,
{1}
5/4^1[4:1],1/8^5[4:1],
4qq1[4:5]/5pp8[4:5],,
{4}
2b/7b,3,4,5,6,5,4/7,,2/7,6,5,4,3,4,2/5,,
7/8,6,5,3/4,2,1,3/8,,1/2,3,4,5/6,7,8,1/6,,
3h[4:1]/4h[4:1],,5h[4:1]/6h[4:1],,
2h[4:1]/4h[4:1],,5h[4:1]/7h[4:1],,
3/4,2,5/6,7,4/5,3/6,2/7,1b-4[4:1]/8b,
{1},,,,,,E
EXPERT
(160){4}
5,5,5,5,4,4,4,4,5,5,5,5,
4,4,4,4h[1:1],
5,5,5,5h[1:1],
4,4,4,4h[1:1],
5,5,5,5,4/5,,,4/5h[4:31],
1,1,4,4,7,{8}1-4[16:1],1,{4},4,
8,8,1,1,6,{8}1-4[16:1],1,,,4,,
1,,8-6[16:1],8,,,1-3[16:1],1,,,
4,,1-4[16:1],1,,,4,,4-1[16:1],4,,,
1,,6-3[16:1],6,,,3,,4h[2:15]/8b,,
5,,5,,8-5[16:1],8,,,
5,,5,,8-3[16:1],8,,,
3,,8,,6,,1,,
3,,8,,6,,7,,
5,,5,,8-5[16:1],8,,,
5,,5,,8-3[16:1],8,,,
1^3[16:1],1,,,8^6[16:1],8,,,
{4}1,5,4/5,3pp6[4:3]/7,
{1}8h[4:3],{16}5/6,,,5/6,,,5/6,,{4}4/7,6qq3[4:3]/2,
{1}1h[4:3],{16}3/4,,,3/4,,,3/4,,{4}2/5,7pp2[4:3]/3,
{1}4h[4:3],{16}1/2,,,1/2,,,1/2,,{4}3/8,2qq7[4:3]/6,
{1}5h[4:3],{16}7/8,,,7/8,,,7/8,,{4}1/6,4q6[4:3]/7,
{1}8h[4:3],{16}8h[16:3]/7,,,6h[16:3],,,5,,{4}4/7,5p3[4:3]/2,
{1}1h[4:3],{16}1h[16:3]/2,,,3h[16:3],,,4,,{4}2/5,8q2[4:3]/3,
{1}4h[4:3],{16}4h[16:3]/3,,,2h[16:3],,,1,,{4}3/8,1p7[4:3]/6,
{1}5h[4:3],4^1[2:1]/5^8[2:1],
{2}
2h[2:3]/5,8>4[4:3],,,7h[2:3]/4,1<5[4:3],,,
3h[2:3]/8,5>1[4:3],,,6h[2:3]/1,4<8[4:3],,,
5h[2:1]/4^1[2:1],,4h[2:1]/5^8[2:1],,5h[2:1]/4^1[2:1],,8z4[2:1],,
8h[2:1]/1v6[2:1],,1h[2:1]/8v3[2:1],,2qq6[1:1],,,{4}4/5,2-5[8:1]/1,
1-6[8:1],2-5[8:1],1-6[8:1],2^5[8:1],1^6[8:1],2^5[8:1],1,2/8,{12}1,,1,8,,8,1,,1,2,,2,3,,3,4,,4,{4}5,1/7-4[8:1],
8-3[8:1],7-4[8:1],8-3[8:1],7^4[8:1],8^3[8:1],7^4[8:1],8,1/7,{12}8,,8,1,,1,8,,8,7,,7,6,,6,5,,5,{4}4,2/8,
{2}1/7^4[8:1],8/2^5[8:1],1/7-3[8:1],8/2-6[8:1],4/6^1[8:1],{12}3,,,4/6,,,3,3,4,2/5,,,6,6,5,4/7,,,
{2}8/2^5[8:1],1/7^4[8:1],8/2q6[8:1],1/7p3[8:1],5/3^8[8:1],{4}6,3/5,1b,,,
6V41[2:1],3h[2:1],,,
3V58[2:1],6h[2:1],,,
7>5[1:1],2h[1:1],,,,,,4/5,2b/7b,
1/2h[4:1],3h[4:1],4h[4:1],5,8/7h[4:1],6h[4:1],5h[4:1],4,
5/6h[4:1],7h[4:1],8h[4:1],1,4h[2:1]/5h[2:1],,,3/6,
1/2,4,7/8,5,1/2,4,2-4[8:1]/7-4[8:1],,
7/8,5,1/2,4,7/8,5,2-5[8:1]/7-5[8:1],,
3/6h[4:1],8h[4:1],1h[4:1],3,6/3h[4:1],1h[4:1],8h[4:1],6,
{2}1/8-4[8:1],8/1-5[8:1],
{8}1/8,1/8,2/7,,3/7,,
{1}1^4[8:1]/5^8[8:1],,,,,,E
MASTER
(160){4}
4/5,3,3,3,4/5,6,4/5,3,
4/5,6,6,6,4/5,3,4/5,2b/7b,
4/8,5/6,1/5,3/4,4/8,5/6,1/5,3/4,
6/7,4/5,2/3,1/8,2h[2:1]/7h[2:1],,,
1-4[8:1]/8,
4-1[8:1],1-4[8:1],4-1[8:1],1-4[8:1],4-1[8:1],1-5[8:1],5,
8-5[8:1],5-8[8:1],8-5[8:1],5-8[8:1],8-5[8:1],5-8[8:1],8-4[8:1],4,
1-5[8:1],5-1[8:1],1-5[8:1],5-1[8:1],1-5[8:1],5-2[8:1]*-8[8:1],,4-1[8:1]*-7[8:1],,
8-4[8:1],4-8[8:1],8^3[8:1]*^5[8:1],,1-5[8:1],5-1[8:1],8h[4:1],1b,
1^4[8:1]/8,4^1[8:1],1-5[8:1],5,8^5[8:1],5^8[8:1],8-4[8:1],4,
2^5[8:1],1,7^4[8:1],8,2^5[8:1],7^4[8:1],1-5[8:1],8,
7^4[8:1],4^7[8:1],7-3[8:1],3,2^5[8:1],5^2[8:1],2-6[8:1],6,
3-8[8:1]/7-4[8:1],,2-5[8:1]/6-1[8:1],,3h[4:1]/7h[4:1],,1-5[16:1]/8-4[16:1],1b/8b,
{1}7h[4:3]/3>6[2:1],2h[4:3]/6<4[2:1],7h[4:3]/3>4[2:1],
{12}
5,5,5,4,4,4,6^3[8:1],,,,,,
1,1,8,2,2,1,3-7[8:1],,,,,,
8,8,1,7,7,8,6-2[8:1],,,,,,
4,4,5,3,3,4,2-6[8:1],,,,,,
5,5,4,6,6,5,7,7,6,
{4}
8<3[2:1],4h[4:3],,,1>7[2:1],5h[4:3],,,
8<1[2:1],4h[4:3],,,1-4[8:1],6h[4:1],8-5[8:1],3h[4:1],1,
{12}
3,4,3,6,5,6,3-8[12:1],4,3,,,,
6,5,6,4,5,4,6-1[12:1],5,6,,,,
2,1,2,7,8,7,3,4,3,6,5,6,1,8,2,7,3,6,
{4}4-1[16:1]/5-8[16:1],,
{16}
6h[1:1]/3b,,,,,,,,5,,,4,,,3,,
2h[1:1],,,,,,,,4,,,5,,,6,,
7h[1:1],,,,,,,,8,,,1,,,2,,
{1}3^6[2:1],
{16}
2h[1:1]/7,,,,,,,,4,,,5,,,6,,
7h[1:1],,,,,,,,6,,,5,,,4,,
{2}3<1[4:3],,,{4}3/6,2/7,
{16}1/8h[2:1],,,,,,,,
7h[16:3],,,6h[16:3],,,5,,8/1h[2:1],,,,,,,,
2h[16:3],,,3h[16:3],,,4,,
{6}3/6h[3:1],,5h[6:1],
4h[6:1],3h[6:1],2h[6:1],
1h[6:1],8h[6:1],7h[6:1],
{16}6q3[8:1],,,,,,,,1h[2:1],,,,,,,,
2h[16:3],,,3h[16:3],,,4,,1/8,,,,,,7,,8,,,1,,,2,,
{4}1/8-4[4:3]*z4[4:3],,,,,1/3,2/4,5/7,
{12}
6/8-3[8:1],,8,4-7[8:1],,4,8-3[8:1],,8,4-7[8:1],,4,2-5[8:1],,2,6-1[8:1],,6,2-5[8:1],,2,1,,1,2b/8b,,6,5/6,,3,3/4,,1/8,8/1h[4:1],,4,2,5,3,6,4,7,5w1[8:1],,,5b,,,
3/1-6[8:1],,1,5-2[8:1],,5,1-6[8:1],,1,5-2[8:1],,5,7-4[8:1],,7,3-8[8:1],,3,7-4[8:1],,7,8,,8,1b/7b,,3,2/4,,6,5/7,,1/8,2/7h[6:1],,5,7,5,7,2,4,2,3-8[8:1]/6-1[8:1],,,3b/6b,,,
7/2-4[8:1],,2,6-1[8:1],,6,3-7[8:1],,3,5-1[8:1],,5,2-4[8:1],,2,6-8[8:1],,6,3-7[8:1],,
3,8-4[8:1],,8,2-5[8:1],,2,6-2[8:1],,6,4-8[8:1],,4,7-4[8:1],,7,
2,2,2,1b/3b,,,7,7,7,6b/8b,,,
2/7-3[8:1],,7,8-4[8:1],,8,1-5[8:1],,1,2-6[8:1],,
2,1-5[8:1],,1,8-4[8:1],,8,7-3[8:1],,7,8-4[8:1],,
8,1w5[8:1],,,1b,,,8w4[8:1],,,8b,,,
{1}2qq4[2:1]/6qq8[2:1],1q6[2:1]/2^5[2:1],7^4[2:1]/8p3[2:1],1^4[4:3]/8^5[4:3],
{4},,4-1[8:1]/5-8[8:1],4/5,2b/7b,
{16}
2/4,,3,,5/7,,6,,2/4,,3,,6,5,6,,7,,1/8,,3,4,3,,2,,1/8,,2b/7b,,,,
5/7,,6,,2/4,,3,,5/7,,6,,3,4,3,,6,5,6,,3/4,,1,,5/6,,8,,2h[16:3]/7b,,,3,4,,
7/8,,6h[16:3]/1,,,5,6,,1/2,,3/8,,6,5,6,,4/7,,8b-4[8:1],,2b-6[8:1],,8b,,2b,,7h[16:3],,,5,6,,
1/2,,3h[16:3]/8,,,4,3,,7/8,,1/6,,3,4,3,,2/5,,1b-5[8:1],,7b-3[8:1],,1b,,7b,,2h[16:3],,,1,2,,2,,
3/4,,8,,5/6,,1,,2/4,,3,,5/7,,6,,1/4,,3,,4/8,,6,,2/7h[16:3],,,8,7,,7,,
{8}5/6,1,3/4,8,4/5,4/5,3h[8:1]/6h[8:1],,2/7,
{16}1,8,1p5[8:1]*q5[8:1],8,1,8,
{1}1b,,,,,,E
Re:MASTER
- とりあえず赤と紫だけ。修正など協力おねがいします。 -- Sea (2018-05-16 17:05:51)
最終更新:2021年05月02日 20:57