アットウィキロゴ

SPILL OVER COLORS

アーティスト 矢鴇つかさ feat. kalon.

BPM EASY BASIC ADVANCED EXPERT MASTER Re:MASTER
142 3 4 9 11+ 13 13

EXPERT MASTER Re:MASTER
譜面制作者 はっぴー はっぴー Jack

EASY

(142){1},,,,{2}
1,1,1,,2,2,2,,3,3,3,,4,4,4/5,,
5,5,5,,6,6,6,,7,7,7,,8,8,1/8,,
{1}
7h[1:1],,6h[1:1],,5h[1:1],,4-1[4:3],,
2h[1:1],,3h[1:1],,4h[1:1],,5-8[4:3],,
8,1/8,1b,
{4}
1,1,,,2,2,,,3,3,,,4,4,,,5,5,,,6,6,,,7,7,,,1/8,,,,
8,8,,,7,7,,,6,6,,,5,5,,,4,4,,,3,3,,,2,2,,,1/8,,,,
{2}1,2,3,4,5,6,7,8,
{1}
8h[2:1],7h[2:1],6h[2:1],5h[2:1],4h[2:1],3h[2:1],2h[2:1],1-5[4:3],,
{4}
5,5,5,,6,6,6,,7,7,7,,8,8,8,,
1,1,1,,2,2,2,,3,3,3,,4,4,4,,
{1}5-1[4:3],,,,,E

BASIC

(142){1}1h[1:1],,8h[1:1],,
{2}
1,1,2,2,3,3,4,4/5,
5,5,6,6,7,7,8,1/8,
{1}
7h[2:3],8h[2:1],6h[2:3],5h[2:1],
3h[2:3],4h[2:1],2h[2:3],1h[2:1],
{4}
8,,8,,1,1,1,,2,,2,,3,3,3/4,,
4,,4,,5,5,5,,6,,6,,7,7,7/8,,
{1}1-5[4:3],,8-4[4:3],,1-6[4:3],,8-3[4:3],,
{2}1/8,1/8,1h[1:1]/8h[1:1],,,,
{4}
1b,1,1,,2,2,2,,3,3,3,,4,5,4/5,,5,5,5,,6,6,6,,7,7,7,,8,1,1/8,,
8b,8,8,,7,7,7,,6,6,6,,5,4,4/5,,4,4,4,,3,3,3,,2,2,2,,1,8,1/8,,
7,7,7,,8,8,8,,1,1,1,,2,2,2,,
{1}2-6[4:3],,7-3[4:3],,2-5[4:3],,7-4[4:3],,,
{4}
1b,1,2,2,3,3,3/4,,5,5,6,6,7,7,7/8,,
8,8,7,7,6,6,5/6,,4,4,3,3,2,2,1/2,,
{1}1-4[4:3]/8-5[4:3],,,,E

ADVANCED

(142){1}2q5[2:1],7p4[2:1],2qq5[2:1],
{4}6,4/5,3/6,2b/7b,
6,5/7,3,2/4,1,2/8,3/7,,3,2/4,6,5/7,8,1/7,2/6,,
2,1/3,7,6/8,5,4/6,3/7,,7,6/8,2,1/3,1-4[4:1]/8-5[4:1],,,,
3h[2:1],,4,4/5,6h[2:1],,5,4/5,3h[2:1],,4,4/5,6,5/6,3,3/4,
6h[2:1],,5,4/5,3h[2:1],,4,4/5,6h[2:1],,5h[2:1],,4h[2:1],,3,2/5,
6,5/6,3,3/4,5/6,3/4,5/7,,{1}4^7[8:3]/3,5^2[8:3]/6,
{4}
3,3/4,6,5/6,3/4,5/6,2/4,,2,1/2,7,7/8,1/8,2/7,3/6,4/5,
6^1[8:3]/5,,,,1/2,3/8,4/7,,
3^8[8:3]/4,,,,7/8,1/6,2/5,,
3,4,5,6,5/6,4/5,3/4,,
{2}
5h[4:1]/6h[4:1],3h[4:1]/4h[4:1],
5h[4:1]/7h[4:1],2h[4:1]/4h[4:1],
{4}
6,4/5,3,4/5,3/6,2/7,1/8,1^4[8:3]/8^5[8:3],,,,3b/6b,
{8}5/6,,3/4,,2,2,1,,3/4,,5/6,,7,7,8,,{4}5/6,4/7,3/8,1^6[8:3]/2^5[8:3],,,,
4/7,5/6,3/4,2/5,1/8,3/4,5/6,4/7,1/8,1/2,1/2,7/8,7^4[8:3]/8^3[8:3],,,,2b/5b,
{8}3/4,,5/6,,7,7,8,,5/6,,3/4,,2,2,1,,{4}3/4,5/6,7/8,1/2q4[8:5],,,,,
5/6,7,3/4,2,5/7,8,2/4,1,
{8}8,8,1,1,8,8,1,1,
{4}8h[4:3],,,1b>7[8:11],,,,,,,,,
2,3,4,5/6,7,6,4/5,3/6,2h[2:1],,1,,7h[2:1],,8,,
6,5,4,3>6[2:1],,,,4/5,3,2,1,7/8,6,7,8,1/2,
7h[4:1]/8h[4:1],,1h[4:1]/2h[4:1],,
1/8,2/7,3/6,4^1[8:3]/5^8[8:3],,,,2b/7b,{8}1/2,,7/8,,6,6,5/6,,7/8,,1/2,,3,3,{4}3/4,
1/2,3/8,4/7,5^2[8:3]/6^1[8:3],,,,3/8,1/2,7/8,1/6,4/5,7/8,1/2,3/8,4/5,
{8}4,4,5,5,4,4,4/5,4/5,3h[4:3]/6,,,,,,
{1}4b<2[1:2],,,,,,E

EXPERT

(142){16}
6h[16:3],,,5h[16:3],,,4,,,,,,4/5,,,,
3h[16:3],,,4h[16:3],,,5,,,,,,4/5,,,,
7h[16:3],,,6h[16:3],,,5,,,,,,5/6,,,,
4h[16:3],,,3h[16:3],,,2,,,,1/8,,{4}2/7,
6h[4:1]/5,8,3h[4:1]/4,1,6h[4:1]/5,8h[4:1],4-1[8:1],,2h[4:1]/1,4h[4:1],5,3/6,{16}2/4,,,4/5,,,5/7,,{4}7-3[8:1],,
3h[4:1]/4,1,6h[4:1]/5,8,3h[4:1]/4,1h[4:1],5-8[8:1],,{16}5/7,,,4/5,,,2/4,,4/5,,,5/7,,,1/8,,1/8,,,4/5,{8},2/7,,,,,
{16}4/5,,,,4,,3,,2h[16:3],,,3h[16:3],,,4,,5h[16:3],,,6h[16:3],,,7,,{4},5/6,3/4<8[2:1],3,2,2,1,1,3/4,2/5,
{16}4/5,,,,5,,6,,7h[16:3],,,6h[16:3],,,5,,4h[16:3],,,3h[16:3],,,2,,{4},3/4,6/5>1[2:1],6,7,7,8,8,5/6,4/7,
{16}1/8,,,,1,,2,,3h[16:3],,,2h[16:3],,,1,,8h[16:3],,,7h[16:3],,,6,,{4},7/8,2/1<5[2:1],2,3,3,4,4,1/2,3/8,
1/8,2-7[4:1]/6-3[4:1],,,
4/5,7-2[4:1]/3-6[4:1],,,
8>4[2:1]/7,7,6,6,5,5w1[4:1],,,
{8}
6h[2:1]/4,,,5,5-2[8:1],,,,3h[2:1]/5,,,4,4-7[8:1],,,,
6h[2:1]/4,,,5,5-1[8:1],,,,3h[2:1]/5,,,4,4-8[8:1],,,,
5/6,4,2,,3/4,2,1,,
3/4,5,7,,5/6,7,8,,
4/7,3,2,1,2/5,6,7,8,8h[4:1],,1,,2/7,2/7,,,
1h[1:1]/5,5,5,5,6,6,7,7,{16}8,,,4/5,,,{8}2/7,,4/5,
{4}4b^1[4:1]/5b^8[4:1],,,2h[4:1]/4-8[8:1],,
5^2[8:1]/6,8,4^7[8:1]/3,1,{16}8h[16:3],,,6h[16:3],,,5,,,,3/7,,{4}2/6,
4^7[8:1]/3,1,5^2[8:1]/6,8,4w8[4:1],,{8},2/6,3/7,,
{2}4/7-1[8:1],8/3-5[8:1],4/7-1[8:1],8/3-5[8:1],4h[4:1]/8h[4:1],
{16}5/7,,,4/5,,,2/4,,2/4,,,4/5,,,5/7,,{4}5/7-3[8:1],,
4^7[8:1]/3,1,5^2[8:1]/6,8,{16}1h[16:3],,,3h[16:3],,,4,,,,2/6,,{4}3/7,
5^2[8:1]/6,8,4^7[8:1]/3,1,{16}1/6,,,3/8,,,2/7,,,,5,,3/7,,,,
{2}5/2-7[8:1],1/6-3[8:1],5/2-7[8:1],1/6-3[8:1],
{8}2h[1:1]/5,5,5,5,6,6,7,7,8-5[8:1],,,,4-1[8:1]/5-8[8:1],,,,2h[4:7]/7,,8,8>7[4:5],{2},,,
{16}
4h[16:3],,,3h[16:3],,,2,,,,2/4,,3/5,,,,
5h[16:3],,,6h[16:3],,,7,,,,5/7,,4/6,,,,
{1}
1h[4:3]/3^6[2:1],8h[4:3]/6^3[2:1],
4h[4:3]/2^7[2:1],5h[4:3]/7^2[2:1],
{4}5h[4:1]/4,4h[2:1],5,6h[2:1],4,3h[2:1],5,7h[2:1],4,2h[4:1],
{16}7,,,5/7,,,4/5,,2/4,,,2/4,,,{8}4/5,,7/8,{4}1b/6b<3[4:1],,,
2h[4:1]/3-8[8:1],,
5^2[8:1]/6,8,4^7[8:1]/3,1,{16}8h[16:3],,,6h[16:3],,,5,,,,4/8,,{4}2/6,
4^7[8:1]/3,1,5^2[8:1]/6,8,{16}3/8,,,1/6,,,2/7,,,,4,,2/6,,,,
{2}7^2[8:1]/4,3^6[8:1]/8,7^2[8:1]/4,3^6[8:1]/8,
{8}7h[1:1]/4,4,4,4,3,3,2,2,
{2}1-4[8:1],4-1[8:1]/5-8[8:1],
{1}8b<1[2:3],,,,,E

MASTER

(142){16}
4^1[4:1]/5,,,7,,,8,,8,,,6,,,5,,5^8[4:1]/4,,,2,,,1,,1h[4:1],,,,8,,,,
4/5,,,7,3,,8,,2,,,,1,,4,,4/5,,,2/7,,,1/8,,{4}4-1[8:1]/5-8[8:1],4/5,
5-2[8:1]/6,5/7,4-7[8:1]/3,2/4,
5-1[8:1]/6,5/7,4-8[8:1]/3,2/4,
{16}7,5,6,4,5,3,4,2,
3h[16:3],,,1h[16:3],,,8,,
6h[16:3],,,8h[16:3],,,1,,
{8}2-5[8:1]/6-1[8:1],,2/6,,
4-7[8:1]/3,2,1/4,,5-2[8:1]/6,7,5/8,,
4-8[8:1]/3,2,1/4,,5-1[8:1]/6,7,5/8,,
{16}4/5,,,2/4,,,1/8,,4/5,,,5/7,,,1/8,,2/7,,,4/5,,,1b/8b,,,,,,,,,,
{8}
4^6[8:1]/2,,4/6,,5^3[8:1]/7,,3/5,,4^6[8:1]/2,,4/6,,5^3[8:1]/7,,3/5,,
4-6[8:1]/2,5,4/7,,5-3[8:1]/7,4,2/5,,4-6[8:1]/2,5,4/7,,5-3[8:1]/7,4,2/5,,
8^2[8:1]/6,,3/8,,1^7[8:1]/3,,1/6,,8^2[8:1]/6,,3/8,,1^7[8:1]/3,,1/6,,
8-2[8:1]/6,1,3/8,,1-7[8:1]/3,8,1>8[4:1]/6,,,,,
{24}5,4,5,{16}4,,,5/7,,,{8}4/5,
4-8[8:1]/2,5,4/7,,5-1[8:1]/7,4,2/5,,4-8[8:1]/2,5,4/7,,5-1[8:1]/7,4,2/5,,
4-8[8:1]/2,5,4/7,6,5-1[8:1]/7,4,2/5,3,4-8[8:1]/2,5,4/7,6,5-1[8:1]/7,4,2/5,3,
4^1[8:1]/2,5,4/7,,5^8[8:1]/7,4,2/5,,4^1[8:1]/2,5,4/7,,5^8[8:1]/7,4,2/5,,
4^1[8:1]/2,5,4/7,6,5^8[8:1]/7,4,2/5,3,4^1[8:1]/2,5,4/7,6,
{16}5/7,,,2/4,,,1/8,,4/7,,,3/5,,,
1-4[8:1]/4,,6,,1/8,,6,5,,,2/5,,,4/6,,,
8-5[8:1]/5,,3,,1/8,,3,4,,,4/7,,,3/5,,,
3,4,,2/5,,6,5,,4/7,,
{4}3-8[8:1]/4,5-1[8:1]/3,4-8[8:1]/5,4,
{8}
3^6[8:1]/7,6,1/3,,6^3[8:1]/2,1,6/8,,
3^6[8:1]/7,6,1/3,,6^3[8:1]/2,1,6/8,,
4q8[8:1]/3,,1/4,,5p1[8:1]/6,,5/8,,
1^4[8:1]/8^5[8:1],,1/8,,1/8,3/6,,,
7^2[8:1]/5,4,3/7,,2^7[8:1]/4,5,2/6,,
{16}5/7,,,1/2,,,{8}3>6[4:1]/6,,,,,
{32}5,6,7,8,1,2,3,4,5,6,7,8,1,2,3,4,
{4}5-1[8:1],5/7b,
4-1[8:1]/6^3[8:1],6-8[8:1]/4,5-1[8:1]/6,8-3[8:1]/5,2-6[8:1]/8,4^1[8:1]*^7[8:1]/2,4,2/6,
5-8[8:1]/3^6[8:1],3-1[8:1]/5,4-8[8:1]/3,1-6[8:1]/4,7-3[8:1]/1,5^2[8:1]*^8[8:1]/7,5,3/7,
3-1[8:1]/2,8-4[8:1]/3,5-7[8:1]/8,4/5,
6-8[8:1]/7,1-5[8:1]/6,4-2[8:1]/1,1w5[8:1]/4,1,
{16}3/7,,2,7,1/8,,,2/4,,,5/7,,1/8,,,5/7,,,2/4,,8-4[8:1]/1,,3,,{4}5/8,
1-4[8:1]/7^2[8:1],7-5[8:1]/1,8-4[8:1]/7,5-2[8:1]/8,3-7[8:1]/5,1^4[8:1]*^6[8:1]/3,1,3/7,
8-5[8:1]/2^7[8:1],2-4[8:1]/8,1-5[8:1]/2,1/4,{16}4/7,,2,2/5,,7,2/7,,,,4/5,,2/7,,,,
{4}
2^5[8:1]/5^8[8:1],2/5,
8^5[8:1]/5^2[8:1],8/5,
3/8^5[4:1],5^2[4:1],2^7[4:1],7^4[4:1],{8}4,3,2,1,
{32}1,2,3,4,5,6,7,8,{8}1,3/7,
{4}1>5[8:1]/5V72[8:1],1/5,5-1[8:1],5/7b,1v4[8:1]*v6[8:1],1>8[4:1],,,
5-7[8:1]*v8[8:1]/7,5,4-2[8:1]*v1[8:1]/2,4,
5-1[8:1]*v8[8:1]/7,5,4-8[8:1]*v1[8:1]/2,4,
8-4[8:1]*v5[8:1]/6,8,1-5[8:1]*v4[8:1]/3,1,
4/8h[4:3],,,7<2[2:1],,,,4/5,
5-2[8:1]/7h[4:1],,4-7[8:1]/2h[4:1],,
{16}5/7,,,2/4,,,{8}3/6,4-1[8:1]/5-8[8:1],,4/5,,
2-7[8:1]/5,6,2/8,,
7-2[8:1]/4,3,1/7,,
3-6[8:1]/8,7,3/5,,
6-3[8:1]/1,2,4/6,,
2/5,,,{16}5,4,3/6,,,1/6,,,3/8,,2/7,,5,2/5,,4,4/7,,
8-4[8:1]/1,,3,,5/8,,,,
{32}2b,3,4,5,7b,6,5,4,1b,2,3,4,8b,7,6,5,
{4}4-8[8:1],2b/4,
4^1[8:1]/7^4[8:1],4-8[8:1],8w4[8:1]/4,8,
5^8[8:1]/2^5[8:1],5-1[8:1],1w5[8:1]/5,1,
4^1[8:1]/7^4[8:1],4-8[8:1],8bw4[8:1]/4,8b,
{16}
1h[8:1]/7h[8:1],,,3h[8:1]/5h[8:1],,,4/5,,
{4}
4^1[8:1]/5^8[8:1],4/5,
6V41[8:1]/7V51[8:1],,
3V58[8:1]/2V48[8:1],,
6/1^4[4:1],4^7[4:1],7^2[4:1],2^5[4:1],{8}5,6,7,8,
{32}
8,7,6,5,4,3,2,1,
{8}
8,2/6,4V27[8:1]/8<4[8:1],,4/8,,4-8[8:1],,2b/4,,
{1}8<1[2:3],,,,E

Re:MASTER

(142){16}
4,,,4,,,4h[8:5],,,,,,,,,,6,,,6,,,6h[8:5],,,,,,,,,,
2,,,2,1,,2h[8:5],,8,,,,7,,,,6h[16:3],,,4h[16:3],,,2>8[16:3],,,,,,1b,,,,
2h[16:3]/8,,,3h[16:3],,,4,,1/7h[16:3],,,6h[16:3],,,5,,2h[16:3]/8,,,4pp8[16:5],,,1h[2:1],,,,,,,,8,1,
7,5,6,4,5,3,4,2,8h[16:3],,,6h[16:3],,,5,,1h[16:3]/7,,,3h[16:3],,,4,,{4}2v5[8:1]/8v5[8:1],28,
3b/7b,1^4[12:1],{16}6h[16:3],,,5,6,,47,,3h[16:3],,,4,3,,25,,1,,28,,3,5,4,6,
78,,,12,,,45,,2,4,,7,5,,18,,56,,,34,{8},1b/8b,,,,,

37,,6,5,56,{16},4,5,,3,,34,,,5,{8}4,6,57,,45,,
2^7[4:1]/4,,7pp2[16:9],7,6,,5,,4,,3,3,47,6,25,3,
45,,6,5,56,{16},4,5,,3,,34,,,5,4,,6,,5/7-3[12:1],,,,3,,,,
24,,,5,{8}4,6,5-1[12:1]/7,,8,,{32}8,7,6,5,4,3,2,1,{24}8,,,4,5,4,{16}5,,,34,,,56,,
1b,,,,24,,3,,45,,,7,5,,6,,45,,,2,{8}4,3,4/5-8[12:1],,1-4[12:1],,
5,,6<3[2:1],6,4,,4,,5,,45,6,34,2,56,7,
45,,46,,35,2,1,8-4[12:1],,2-8[16:1],,6-4[16:1],,2-6[12:1],,7,
7<1[2:1],,8,8h[8:5],,,,,1,8^5[12:1],1^4[12:1],8,1,{16},57,{8},24,

1h[8:3],,,3,2/4qq4[4:1],5,{16}6,6,,,8h[8:3],,,,,,6,,5pp5[4:1]/7,,4,,3,3,,,
1h[8:3],,,,,,8,1,,27,,45,{8}4-8[12:1]/5-1[12:1],36,,,2^7[12:1]/7,,2/6^3[12:1],,36,,
2/8h[8:1],2,2/4h[8:1],2,1h[8:1]/3,3,3/5h[8:1],3,6/8h[8:1],6,4h[8:1]/6,6,1h[8:1]/7,7,5h[8:1]/7,7,
18,2-6[12:1],13,2,,7-3[12:1],68,7,1h[4:1],,8-5[12:1],1-4[12:1],8,1,,,
57,18,24,{16}5,4,5,4,6,3,7,2,8,1,27,,6,57,,3,2/4>5[4:1],,{2},
{32}3,4,5,6,7,8,1,2,3,4,5,6,7,8,1,2,{16}3-8[12:1]/7-4[12:1],,48,,3b/7b,,,,

26,,1,8,,8,2,,37,,6,5,,5,7,,1/3h[16:3],,,5^8[48:5],,,{24}1,2,3,{16}4,,,56,,,12,,
38,,6,5,,5,7,,12,,3,4,,4,2,,7h[8:1]/8h[8:1],,,3h[8:1]/4h[8:1],{8},5-1[12:1]/6,,8>4[8:1],7p5[4:1],8,
7,,1,,7h[16:3],{16},8,7,,16,,25,,3,,47,,6,6,5,,78,,16,,3,3,
4,,12,,38,,5,5,4,,6,57,,3,24,,7h[8:1]/8h[8:1],,,1h[8:1]/2h[8:1],,,45,,2-5[12:1]/7-4[12:1],,18,,2b/7b,,,,
18,,7,8,,8,6,,45,,2,1,,1,3,,6h[16:3]/8,,,4^1[48:5],,,{24}8,7,6,{16}5,,,34,,,28,,
1-5[12:1]/7-5[12:1],,8,,1b/7b,,,,24,,6,5,,5,7,,1h[8:1]/2h[8:1],,,5h[8:1]/7h[8:1],,,{2}1h[8:5]/6<4[24:5],{24}5,6,7,
{16}8b,,,,4^1[12:1]/5,,,,8h[16:3],,,6h[16:3],,,5,,47,,,,2/5^8[12:1],,,,1h[16:3],,,3h[16:3],{8},4,
25,36,47,18,{32}2,3,4,5,8,7,6,5,1,2,3,4,7,6,5,4,{4}1b,,4-8[12:1],1b>7[4:1],
8pp3[4:5]*qq5[4:5],,,,,,,,
2-4[12:1]/6,5,3/7-5[12:1],4,{16}26,,,35,,,4q5[4:1],,{2},

6h[1:1],,{8}4h[8:3],,,{24}5,4,6,{16}5,,,5,,,46,,
{2}4h[4:1]/6h[4:1],3h[4:1]/5h[4:1],{16}4,,,4,{8},3/5p4[4:1],,,,3,
{4}3h[8:1],4h[8:1],5h[8:1],4h[8:1]/6h[8:1],7h[8:1],5h[8:1],4h[8:1],3h[8:1]/5h[8:1],
2h[8:1],1h[8:1],8h[8:1],2h[8:1]/7h[8:1],{16}45,,,2^4[16:1]/7^5[16:1],,,27,,,,18,,2b/7b,,,,
{32}8-4[12:1],7,6,5,4,3,2,1,{4}8^3[12:1]*^5[12:1],8bw4[12:1],8b,

{16}26,,1,8,,8,2,,37,,6,5,,5,7,,1/3h[16:3],,,5^8[48:5],,,{24}1,2,3,{16}4,,,56,,,12,,
38,,6,5,,5,7,,12,,3,4,,4,2,,7h[8:1]/8h[8:1],,,2h[8:1]/4h[8:1],,,{2}3>5[24:5]/8h[8:5],{24}4,3,2,
{16}1b,,,,4/5^8[12:1],,,,2h[16:3],,,1,2,,3,,45,,3,,4^1[12:1]/5,,6,,7h[16:3],,,8,{8}7,6,
1-5[12:1]/5,8-6[16:1],1-3[16:1],8-4[12:1],1^4[12:1],8^5[12:1],1-5[12:1],8,{4}1b,,3/7-3[8:1],5b^7[7:4]*^8[7:6]*<1[7:8]*<2[7:10]*<3[7:12]*<4[1:2],
{1},,,,,E

  • 多分スライド速いので後で直します -- Sea (2018-05-22 15:26:34)
  • [16:1]のスライドをすべて[8:1]にしました。 -- Sea (2018-05-22 18:55:20)
  • 赤以下補完しました。間違いなどあれば修正おねがいします。 -- Sea (2018-05-23 13:47:16)
  • リマスター持ってる人いますか? -- 名無しさん (2022-09-21 00:28:52)
名前:
コメント:

タグ:

+ タグ編集
  • タグ:
最終更新:2026年10月31日 20:32