EASY
(185){2}
1,1,2,2,3,3,4,4,5,5,6,6,7,7,8b,,
{4}
8,8,8,,7,7,7,,6,6,6,,5,5,5,,
4,4,4,,3,3,3,,2,2,2,,1,1,1,,
1,1,1,,2,2,2,,3,3,3,,4,4,4,,
5,5,5,,6,6,6,,7,7,7,,8,8,8,,
8,8,8h[1:1],,,,,,1,1,1h[1:1],,,,,,
2,2,2h[1:1],,,,,,3,3,3h[1:1],,,,,,
4,4,4h[1:1],,,,,,5,5,5h[1:1],,,,,,
6,6,6h[1:1],,,,,,7,7,7h[1:1],,,,,,
{1}8-4[4:3],,1-5[4:3],,7-3[4:3],,2-6[4:3],,
{2}8,8,7,7,6,6,5,5,4,4,3,3,2,2,1,1,
{1}8h[1:1],,1h[1:1],,1h[1:1]/8h[1:1],,1/8,1/8,2/7,3/6,4/5,4/5,
{4}
5,5,5,5,6,6,6,,7,7,7,7,8,8,8,,
1,1,1,1,2,2,2,,3,3,3,3,4,4,4,,
4,4,4,4,3,3,3,,2,2,2,2,1,1,1,,
8,8,8,8,7,7,7,,6,6,6,6,5,5,5,,
{1}4-1[4:3],,,,8-5[4:3],,4-1[4:3],,
{4}
1b,1,1,1,2,2,2,,3,3,3,3,4,4,4,,
5,5,5,5,6,6,6,,7,7,7,7,8,8,8,,
{1}1b,,,,E
BASIC
(185){2}4,4,4,4,5,5,5,5,
{4}
4,4,3,3,2,2,1,1,8,8,7,7,5b/6b,,,1b,
5,5,5/6,,4,4,3/4,,5,5,5/6,,4,4,3,3,
2,2,1/2,,7,7,7/8,,2,2,1/2,,7h[2:1]/8h[2:1],,,,
6,6,5/6,,3,3,3/4,,6,6,5/6,,3,3,2,2,
1,1,1/2,,8,8,7/8,,1,1,1/2,,1h[2:1]/8h[2:1],,,1/8,
7,7,6,6,5,5,4,4,3,3,2,2,1h[2:1],,,2/8,
2,2,3,3,4,4,5,5,6,6,7,7,8h[2:1],,,1/7,
{8}
7,,7,,6,6,6,,5,,5,,4,4,4,,3,,3,,2,2,2,,1h[2:1]/8h[2:1],,,,,,1/8,,
2,,2,,3,3,3,,4,,4,,5,5,5,,6,,6,,7,7,7,,1h[2:1]/8h[2:1],,,,,,1/8,,
{1}2b/7b,,,,,,,,
{4}
2,2,2,2,3,3,3,3,4,4,4,4,5,5,4,4,
5,5,5,5,6,6,6,6,7,7,7,7,8,8,1,1,
{1}
2-6[4:5],,7-3[4:5],,1-4[4:5],,5-8[4:5],,
{4}1/2,,7/8,,1/2,1/8,7/8,,
{8}6,6,6,,5,5,5,,4/5,,4,5,4,,3/6,,
{4}4,4,3,3/4,2,2,1,1/8,8,8,7,7/8,{8}6,6,6,,3,3,3,,
{4}5,5,6,5/6,7,7,8,1/8,1,1,2,1/2,{8}3,3,3,,6,6,6,,
4,4,4,,3/4,,2/5,,2,2,2,,1/2,,3/8,,8,8,8,,7/8,,1/6,,6,5,6,,3,4,3,,
5,5,5,,5/6,,4/7,,7,7,7,,7/8,,1/6,,1,1,1,,1/2,,3/8,,3,4,3,,6,5,6,,
{1}4-8[4:5],,5-1[4:5],,3-8[4:5],,6-1[4:5],,
{4}
1b/2b,2,3,3/4,4,4,5,4/5,6,6,7,7/8,{8}8,8,8,,1,1,1,,
7,8,7,,2,1,2,,3,4,3,,6,5,6,,6,6,5,5,4,4,3,3,2,1,8,7,6,5,4,3,
{1}1b/2b,,,,E
ADVANCED
(185){4}
5,5,5,5,4,4,4,4,5,5,5,5,4,4,4,4,
5/6,5/6,4/7,4/7,3/4,3/4,2/5,2/5,5/6,5/6,4/7,4/7,4^1[4:1]/5^8[4:1],,,2b/7b,
5/6,3/6,5/6,3/6,3/4,3/6,3/4,3/6,5/6,3/6,5/6,3/6,3/4,2/5,1/6,7/8,
3/4,3/6,3/4,3/6,5/6,3/6,5/6,3/6,3/4,2/5,1/6,7/8,1-6[8:1]/2-5[8:1],,7-4[8:1]/8-3[8:1],,
5/6,3/5,5/6,3/5,3/4,4/6,3/4,4/6,5/6,3/5,5/6,3/5,3/4,2/5,1/6,7/8,
3/4,4/6,3/4,4/6,5/6,3/5,5/6,3/5,3/4,2/5,1/6,7/8,5/6,3/4,4/5,2b/7b,
7h[4:3],6,3,6,2h[4:3],3,6,3,7h[4:3],6,3,6,2h[4:1],3,7h[4:1],6,
2h[4:3],3,6,3,7h[4:3],6,3,6,2h[4:3],3,6,3,7h[4:1],6,2h[4:1],3,
6h[4:3],5,1,4,3h[4:3],4,8,5,6h[4:3],5,1,4,3h[4:1],4,7h[4:1],8,
3h[4:3],4,8,5,6h[4:3],5,1,4,3h[4:3],4,8,5,8h[4:1],7,1h[4:1],2,
{1}8<1[4:11],,,,5<4[4:11],,,,
{4}
4h[4:1],3h[4:1],2h[4:1],1h[4:1],8h[4:1],7h[4:1],6h[4:1],5,
5h[4:1],6h[4:1],7h[4:1],8h[4:1],1h[4:1],2h[4:1],3h[4:1],4,
4h[4:1],3h[4:1],2h[4:1],1h[4:1],8h[4:1],7h[4:1],6h[4:1],5,
5h[4:1],6h[4:1],7h[4:1],8h[4:1],1h[4:1],2h[4:1],3h[4:1],4,
6h[4:1],5,3h[4:1],4,6h[4:1],5,7/8,1/6,
3h[4:1],4,6h[4:1],5,3h[4:1],4,1/2,3/8,
7h[4:1],8,2h[4:1],1,7h[4:1],8,5/6,4/7,
2h[4:1],1,7h[4:1],8,2h[4:1],1,3/4,2/5,
5/6,3/8,3/4,1/6,7/8,1/6,2/5,3/4,1/2,3/8,4/7,5/6,
1-4[4:1]/8-5[4:1],,,1b/8b,
5/7,2/7,5/7,2/7,2/4,2/7,2/4,2/7,5/7,2/7,5/7,2/7,2/4,5/7,4/5,1/8,
2/4,2/7,2/4,2/7,5/7,2/7,5/7,2/7,2/4,2/7,2/4,2/7,4/5,3/6,2/7,1/8,
5/7,2/5,5/7,2/5,2/4,4/7,2/4,4/7,5/7,2/5,5/7,2/5,2/4,4/7,5/7,2/5,
2/4,4/7,2/4,4/7,5/7,2/5,5/7,2/5,3/4,2/5,1/6,7/8,5/6,4/7,3/8,1/2,
8,8,1,1,8,8,1,1,
7,7,2,2,7,7,2,2,
6,5/6,3,3/4,6,5/6,3,3/4,
5,4/5,4,5/4,5,4/5,4,5/4,
6/8,3/6,6/8,3/6,1/3,3/6,1/3,3/6,6/8,3/6,6/8,3/6,1/3,3/6,6/8,3/6,
1/3,1/6,1/3,1/6,6/8,3/8,6/8,3/8,1/3,1/6,1/3,1/6,6/8,4^1[8:1]/5^8[8:1],,,
{1}2b/7b,,,,E
EXPERT
(185){4}
4,4,5,5,4,4,5,5,3,3,6,6,3,3,6,6,3,2/4,6,5/7,2,1/3,7,6/8,
{16}1,,1,,8,,8,,1,8,1,8,1,8,1,8,{4}1h[4:3],,,8b,
{8}
2/4,,7-1[8:1]/5,7,2-6[8:1],,5,,5/7,,2-8[8:1]/4,2,7-3[8:1],,4,,
2/4,,7-1[8:1]/5,7,2-6[8:1],,5,,7-1[8:1]/5,,2-6[8:1],,8-4[8:1],,1,,
5/7,,2-8[8:1]/4,2,7-3[8:1],,4,,2/4,,7-1[8:1]/5,7,2-6[8:1],,5,,
{4}5/7,2-8[8:1]/4,7-3[8:1],4,2-8[8:1]/4,7-3[8:1],1h[4:1],8b,
{16}
4/7,,6,,2/5,,3,,6,5,,5,7,,7,,2/5,,3,,4/7,,6,,3,4,,4,2,,2,,
4/7,,6,,2/5,,3,,6,5,,5,7,,7,,2/5,,3,,5/7,,8,,2/4,,,5/7,,,1/8,,
3/8,,2,,1/6,,7,,2,1,,1,3,,3,,1/6,,7,,3/8,,2,,7,8,,8,6,,6,,
{8}2/4,3,5/7,6,2/4,3,5/7,6,{2}4v1[8:1]*v7[8:1]/2,2v5[8:1]/8v5[8:1],
{8}
5/7,6,4/8,,2/4,3,1-5[8:1]/5,,8-4[8:1],8,2-6[8:1],2,7-3[8:1],7,1,,
2/4,3,1/5,,5/7,6,8-4[8:1]/4,,1-5[8:1],1,7-3[8:1],7,2-6[8:1],2,8,,
7-4[8:1]/8-3[8:1],,,,1-6[8:1]/2-5[8:1],1/2,,,6/8,7,1/3,2,4-1[8:1]/5-8[8:1],,,,
1-6[8:1]/2-5[8:1],,,,7-4[8:1]/8-3[8:1],7/8,,,1/3,2,6/8,7,4-1[8:1]/5-8[8:1],,,,
{8}
4/6,4/6,3/5,3/5,{16}4,5,{8}4,2/7,,7/8,1/6,1/2,3/8,1/8,2/7,3/6,,
3/5,3/5,4/6,4/6,{16}4,5,4,5,{4}4-8[8:1],6-1[8:1],3-8[8:1],5-1[8:1],4b,
{8}
3/5,3/5,4/6,4/6,{16}5,4,{8}5,2/7,,1/2,3/8,7/8,1/6,1/8,2/7,3/6,,
1/7,1/7,2/8,2/8,{16}1,8,1,8,1,8,1,8,{8}1-5[8:1],1,6-8[8:1],6,4-2[8:1],4,5b<4[1:2],,
{1},,,,6h[1:1],5h[1:1],4h[2:3],{4}5h[2:1],,,2/7,
{8}5/6,
{4}6h[1:2]/5,5,5,5,5,5,7,8,3h[1:1],4,4,4,6h[1:1],5,5,5,
3h[1:2],4,4,4,4,4,2,1,6h[1:1],5,5,5,3h[4:3],4,4,{8}4,
{16}
3/4,,,3/4,,,2/5,,,,,,5/6,,,5/6,
,,5/6,,,4/7,,,,,,4/5,,,,,
4,5,,,2/4,,,1/3,,,,,,4/5,,,
5/7,,,6/8,,,5/7,,,4/5,,,2/4,,,1/8,
,1/8,,,,,4,5,4,,,7/8,,,1/6,,
,,4/5,,,3/6,,,2/7,,,1/8,,,1/8,,
1,8,1,8,1,8,1,8,2,7,2,7,2,7,2,7,
1,8,1,8,2,7,2,7,1,8,1,8,2,7,2,7,
{2}1w5[8:1],2v5[8:1]/8v5[8:1],
{8}
1-5[8:1],1,7-3[8:1],7,2-6[8:1],2,8-4[8:1],8,
1-5[8:1],1,8-3[8:1],8,1-6[8:1],1,8,,1/8,,4-8[8:1]/5-1[8:1],,,,2b/7b,,
{16}
1/8,,2/7,,1,8,,8,6,,6,8,,8,1,,1,3,,3,1,,1,8,,8,5,,4/6,,3/7,,
1/8,,2/7,,8,1,,1,3,,3,1,,1,8,,8,6,,6,8,,8,1,,1,4,,3/5,,2/6,,
1/8,,2/7,,1,8,,8,6,,6,8,,8,1,,1,3,,3,1,,1,8,,8,5,,4/6,,3/7,,
1h[8:1]/2h[8:1],,,3/8,,,7h[8:1]/8h[8:1],,,1/6,,,3/4,,2/5,,
5h[8:1]/6h[8:1],,,4/7,,,3h[8:1]/4h[8:1],,,2/5,,,7/8,,1/6,,
4/5,,3/6,,5,4,,4,2,,2,4,,4,5,,5,7,,7,5,,5,4,,4,1,,2/8,,3/7,,
4/5,,3/6,,4,5,,5,7,,7,5,,5,4,,4,2,,2,4,,4,5,,5,8,,1/7,,2/6,,
4/5,,3/6,,5,4,,4,2,,2,4,,4,5,,5,7,,7,5,,5,4,,4,1,,2/8,,3/7,,
7h[8:1]/8h[8:1],,,1/6,,,1h[8:1]/2h[8:1],,,3/8,,,5/6,,4/7,,
1h[8:1]/2h[8:1],,,3/8,,,7h[8:1]/8h[8:1],,,1/6,,,2b/7b,,,,
{8}
4/6,4/6,,3/5,,4/6,,3/5,,4/6,,3-7[8:1]/5,,6,6,,
3/5,3/5,,4/6,,3/5,,4/6,,3/5,,6-2[8:1]/4,,3,3,,
4/6,4/6,,3/5,,4/7,,2/5,,4/8,,5-1[8:1]/1,,4,4,,
5,5,3,3,7,7,1,1,{16}8,1,8,1,8,1,8,1,8,1,8,1,8,,,,
2b/7b,,,,7,8,,8,2,,2,8,,8,7,,7,5,,5,7,,7,8,,8,4,,3/5,,2/6,,
1/2,,3/8,,2,1,,1,7,,7,1,,1,2,,2,4,,4,2,,2,1,,1,5,,6/4,,7/3,,
{8}
6-1[8:1],6,3-8[8:1],3,5-1[8:1],5,4-8[8:1],4,
6-1[8:1],6,3-8[8:1],3,5-1[8:1],5,4,,
{16}
2h[8:1]/4h[8:1],,,1/5,,,5h[8:1]/7h[8:1],,,4/8,,,3,,2/4,,
6h[8:1]/8h[8:1],,,1/5,,,1h[8:1]/3h[8:1],,,4/8,,,4/5,,1/8,,
{1}2b/7b,,,,E
MASTER
(185){4}
1-6[8:1],1-4[8:1],7-3[8:1],1,
6-8[8:1],8v1[16:3],1-3[8:1],3,
2v5[8:1]/8v5[8:1],2/8,1v4[8:1]/7v4[8:1],1/7,
2v5[8:1]/8v5[8:1],2/8,1v4[8:1]/7v4[8:1],1/7,
{8}
5h[8:1]/2,3,4h[8:1]/8,7,6h[8:1]/1,2,3h[8:1]/5,6,
7h[8:1]/4,3,2h[8:1]/6,7,8h[8:1]/3,2,1h[8:1]/6,5,
3/4,5/6,7/8,1/2,{16}3,4,2,5,1,6,8,7,8,8,8,8,8,8,8,8,{4}8w4[8:1],8b,
{16}
1/7,,,,3/5,,4,,7,8,,1/5,,3,4,,6,6/8,,,4/6,,5,,2,1,,4/8,,6,5,,
2/4,,,,1/7,,8,,3,4,,1/5,,7,8,,2,2/4,,,3/5,,4/6,,5/7,,1,2/8,,5,4/6,,
2/8,,,,4/6,,5,,2,1,,4/8,,6,5,,3,1/3,,,3/5,,4,,7,8,,1/5,,3,4,,
{4}5h[8:1]/6h[8:1],2h[8:1]/3h[8:1],7h[8:1]/8h[8:1],3h[8:1]/5h[8:1],1h[8:1]/7h[8:1],
{16}2/8,,4/6,,7,8,,1/5,,3,4,,
2/8,,,,4/6,,5,,2,1,,7/8,,6,5,,3,1/3,,,3/5,,4,,7,8,,1/2,,3,4,,
5/7,,,,2/8,,1,,6,5,,3/4,,2,1,,7,5/7,,,4/6,,3/5,,2/4,,8,1/7,,4,3/5,,
{8}
1h[8:1]/6,7,8h[8:1]/4,3,2h[8:1]/5,6,7h[8:1]/1,2,
3h[8:1]/8,7,6h[8:1]/2,3,4h[8:1]/7,6,5-1[8:1],5,
2-6[8:1]/5,2,7-3[8:1]/2,7,4-8[8:1]/7,4,5w1[8:1]/4,5,
5b,,3/7,2/8,{32}1w5[8:1],2,3,4,5,6,7,8,{16}1,,,,
2/8,,1,1,1-5[8:1],,,,4-8[8:1],,4,,1,,1,,4,5,6,7,8-4[8:1],,8,,5-1[8:1],,5,,8,,8,,,,
1/5,,3-7[8:1]/7,,,,4-8[8:1],,4,,3,,3,,,,
4/8,,6-2[8:1]/2,,6,,5-1[8:1],,5,,6,,6,,,,
7,8,7-3[8:1],,,,1-5[8:1]/7,,2,,1/3,,,,6,5,4,3,,1/8,2/7,3/6,4pp6[16:3]/5qq3[16:3],,2/7,,4/5,,,,,,
2,1,2-6[8:1],,,,8-4[8:1]/2,,7,,6/8,,,,1-5[8:1],,3,,8-4[8:1]/1,,6,,1w5[8:1]/8,,,,1b,,,,
7/8,,4,,1/2,,5,,7-4[8:1]/8-4[8:1],7/8,7/8,,7b/8b,,,,
2/6,,7,8,,2,1,,3-7[8:1],2/4,1/5,,3,,,,5/6,,3,,7/8,,2,,4/8,3/7,2/6,1/5,
{4}4q8[8:1]/8q4[8:1],4^1[8:1]/8^5[8:1],4/8,{16}1b/3h[16:3],,,6h[16:3],,,8,,
1/2,,5,,7/8,,4,,1-5[8:1]/2-5[8:1],1/2,1/2,,1b/2b,,,,
3/7,,2,1,,7,8,,6-2[8:1],5/7,4/8,,6,,,,3/4,,6,,1/2,,7,,
3,3,6,6,1,1,8,8,2,7,2,7,3,6,3,6,4/5,,
{24}4/5,3/6,2/7,{8}1s5[8:1]/8z4[8:1],,{1}1b/8b,,,,
{16}
2h[4:3],,,,1,,,1,,,8,,8h[1:1],,,,
6,,,6,,,5,,,5,,,4h[1:1],,,,
8,,,,7,,,7,,,6,,6h[4:3],,,,
8,,,8,,,3,,3h[2:1],,,1,,,1,,
{8}
7b,6,5,6,7,6^4[8:1]*^8[8:1],,,,3,4,
3,2,3^1[8:1]*^5[8:1],,,,6,5,4,3^6[8:1],,1,1h[4:1],,8,7,
6,5,4^2[8:1]*^7[8:1],,,,8,1,2,3^8[8:1],,7,7,,
8,6^1[8:1],4,2,2,,,,2^7[8:1]/6,5,4,3,,
8,1,7h[8:3],5,3,1h[8:3],7,5,3b-7[8:1],,
{16}
1-5[16:1]/3,,,8-4[16:1],,,3,,2b-6[8:1],,,,7-4[16:1]/2,,,5-1[16:1],
,,3-7[16:1],,,8,,,1h[4:1],,,,5h[4:1],,,,
3-8[16:1],,,7-4[16:1],,,2,,1b-5[8:1],,,,8-3[16:1]/1,,,6-1[16:1],
,,4-7[16:1],,,2-5[16:1],,,8-4[16:1],,,6-2[16:1],,,1,,
8,,,,2b/6b,,4/8,3/7,2-6[16:1]/6,,,8-4[16:1],,,1,,
,,3-8[16:1],,,7-4[8:1],,,1-5[8:1],,,8,,,6,,
2,1,3,8,4,7,5,6,3,4,2,5,1,6,8,7,
2,1,3,1,4,1,5,1,5,6,5,7,5,8,5,1,5,,,,
{32}1b,2,3,4,5,6,7,8,{4}1,{32}8b,7,6,5,4,3,2,1,8,,,,
1,2,3,4,5,,,,7,6,5,4,3,,,,2,3,4,5,6,,,,8,7,6,5,
{16}2/4,,5/7,,3,6,3,6,4/5,,{24}4/5,3/6,2/7,1/8,,,1/8,2/7,3/6,
{8}4b-1[16:1]/5b-8[16:1],,4/5,,3-6[8:1]/7-2[8:1],1/5,3b/7b,,
{16}
4/8,,1/2,,6,8h[8:1],,7,1h[8:1],,8,2h[8:1],,1,3h[8:1],,
6,8h[8:1],,5,1h[8:1],,4,2h[8:1],,4,3,6,5,,3/8,,
1/5,,7/8,,3,1h[8:1],,2,8h[8:1],,1,7h[8:1],,8,6h[8:1],,
3,1h[8:1],,4,8h[8:1],,5,7h[8:1],,5,6,3,4,,2/8,,
4/6,,1h[8:1],,5,2h[8:1],,5,3h[8:1],,5,4h[8:1],,5,4,6,3,
7h[8:1],,4,6h[8:1],,4,5h[8:1],,4,5,3,7h[8:1],,1h[8:1],,
8-4[16:1],,,8b,,,1-5[16:1],,,1b,,,3/4,,5/6,,
7-2[16:1],,,3-6[16:1]/7,,,8-5[16:1]/3,,,4-1[16:1]/8,,,4/6,,7,,
{8}
8b^5[8:1],4,8^3[8:1],4,8-4[8:1],4,8,2,
1^4[8:1],5,1^6[8:1],5,1-5[8:1],5,1,7,
8^5[8:1],4,8,3,1^4[8:1],5,1,6,8^5[8:1],4,8,
{16}3,2,1pp3[16:1]/5pp7[16:1],,,1b/5b,,,,,
{8}
2q6[8:1],2,1-5[8:1],1,8-4[8:1],8,
7p3[8:1],7,8-4[8:1],8,1-5[8:1],1,
{16}
2h[16:3],,,7h[16:3],,,4,,
5-1[16:1],,,2b-5[16:1],,,6-2[16:1],,,1b-6[16:1],,,7,,7,,
1h[8:3],8,7,6,5,4,3,2,1-5[8:1]/8-4[8:1],,3/6,,1b/8b,,,,
{8}
7h[2:3]/1,1,,2,,3,,4,,5,,6,8h[4:1],7,6h[4:1],8,2h[1:1],8,,7,,6,,5,4h[8:3],3,3,5h[8:3],6,6,4,,6,
{16}
7-3[16:1]/8,,,8-4[16:1],,,1-5[16:1],,,2-6[16:1],,,4,,3,,
2-6[16:1]/1,,,1-5[16:1],,,8-4[16:1],,,7-3[16:1],,,5,,6,,
{8}7/8,1/2,1/2,3/4,3/4,5/6,5/6,
{16}
4,5,3,6,2,7,1,8,1,1,1,1,1,1,1,1,
{32}1,2v5[16:1]/8v5[16:1],3/7,4/6,{8}5,2b/8b,,
6q2[8:1],6,5-1[8:1],5,4-8[8:1],4,
3p7[8:1],3,4-8[8:1],4,5-1[8:1],5,
6^1[8:1],6,5-1[8:1],5,4-8[8:1],4,
3^8[8:1],3,4,5,1/6,3/8,
{16}1-5[16:1],5,3,7,{8}1b,,
1-5[16:1],8-6[16:1],1-3[16:1],8-4[16:1],
1-6[8:1],8-3[16:1],1^4[16:1],8^5[16:1],
1,8,{32}1b,2,3,4,5,6,7,8,{16}1-5[16:1],,,6-2[16:1],,,6b,,
4-8[16:1],,,7b-4[16:1],,,3-7[16:1],,,8b-3[16:1],,,1,,1,,
2,2,4,4,6,6,8,8,{32}1,2,3,4,5,6,7,8,
{4}5bv2[16:1]*v8[16:1]/1b,{1}5b,,,,E
Re:MASTER
(185){2}
3-8[8:1]/5-8[8:1],2-6[8:1]/6-2[8:1],
2-4[8:1]/8-6[8:1],2-5[8:1]/8-5[8:1],
4v1[8:1]*v7[8:1],5v2[8:1]*v8[8:1],
1v4[8:1]*v7[8:1],8v2[8:1]*v5[8:1],
{8}
3h[8:7]/5,5,6,6,7,7,8,8,
2h[8:7]/4,4,5,5,6,6,7,7,
1h[8:3]/4,4,6,6,
{16}
3,7,3,7,2,6,2,6,1,5,1,5,1-5[8:1],5,1,,
5w1[8:1]/1,,,,5b,,,,
5/7,,6,,2^7[8:1]/4,,3,,6,6,,5,,4,5,,4/6,4/6,,,7^2[8:1]/5,,6,,3,3,,4,,5,4,,
2/4,,3,,7^2[8:1]/5,,6,,3,3,,4,,5,4,,3/5,3/5,,,2^7[8:1]/4,,3,,6,6,,5,,4,5,,
2/4,,3,,7^2[8:1]/5,,6,,3,3,,4,,5,4,,3/5,3/5,,,2^7[8:1]/4,,3,,6,6,,5,,4,5,,
{8}5/7,6,2/4,3,6/8,7,1/3,2,6^1[8:1]/3,,2^5[8:1],,{16}8,8,,2/7,,4,5,,
2b/5b,,3,,7^2[8:1]/4,,6,,3,3,,4,,7,5,,4/6,4/6,,,2^7[8:1]/5,,3,,6,6,,5,,2,4,,
2/5,,3,,7^2[8:1]/4,,6,,3,3,,4,,7,5,,4/6,4/6,,,2/5,,3,,4/5,,,2/4,,,5/7,,
2/5,,3,,7^2[8:1]/5,,6,,3,3,,4,,7,5,,4/6,4/6,,,2^7[8:1]/4,,3,,6,6,,5,,2,4,,
{8}5/7,6,2/4,3,6/8,7,1/3,2,3/6,,4/5,3/6,{16}1-5[8:1]/8-4[8:1],2/7,{8}3/6,1b/8b,,
2>5[8:1]/5-1[8:1],1/4,,,4-8[8:1]/7<4[8:1],5/8,,,
{16}3,4,3,2,3-1[8:1],4,3,2,{8}3-5[8:1]*-7[8:1],,,,
3-8[8:1]/7-5[8:1],2/6,,,2-4[8:1]/6-1[8:1],3/7,,,
8-4[8:1],7,1-5[8:1],2,7-4[8:1],8,1,1,
4-8[8:1]/7<4[8:1],5/8,,,2>5[8:1]/5-1[8:1],1/4,,,
{16}6,5,6,7,6-8[8:1],5,6,7,{8}6-2[8:1]*-4[8:1],,,,
2-4[8:1]/6-1[8:1],3/7,,,3-8[8:1]/7-5[8:1],2/6,,,
1-5[8:1],2,8-4[8:1],7,1w5[8:1],2,,,
{16}
1/7,,4,,2/8,,5,,4-8[8:1]/8-4[8:1],3/7,2/6,,,,,,
2h[8:1]/6h[8:1],,,4h[8:1]/8h[8:1],,,2/6,,4-1[8:1]/8-5[8:1],3/7,2/6,,,,,,
1^4[8:1]/8^5[8:1],,2/7,,1/8,,,,1/8,1/8,1/8,,2-7[8:1]/7-2[8:1],,3/6,,
2^4[8:1]/7^5[8:1],,,,,,,,2/4,,,4/5,,,5/7,,
2/8,,5,,1/7,,4,,1-5[8:1]/5-1[8:1],2/6,3/7,,,,,,
3h[8:1]/7h[8:1],,,1h[8:1]/5h[8:1],,,3/7,,1-4[8:1]/5-8[8:1],2/6,3/7,,,,,,
1/7,,4,,2/8,,5,,8,4,8,4,8-4[8:1],4,8,,4w8[8:1]/8,,,,4,,,,
2-5[8:1]/6-1[8:1],,3/7,,2b/6b,,,,
{1}3b/7b,,,,
{16}
3h[2:3],,,,5,,,5,,,4,,4,,,,5,,,5,,,4,,4,3,,,3/5,,,,
6h[2:3],,,,4,,,4,,,5,,5,,,,4,,,4,,,5,,5,6,,,4/6,,,,
7-5[16:1],,4-2[16:1],,,,,,5,3,6,4,7,5,8,,
2-4[16:1],,5-7[16:1],,,,,,4,6,3,5,2,4,1,,
7-5[16:1],,4-2[16:1],,,,,,5,3,5,3,6,4,7<3[4:1],,,,3>7[4:1],,,,7<3[4:1],,,,3,,,,2,,
2-4[16:1],,5-7[16:1],,,,,,4,6,3,5,2,4,1,,
7-5[16:1],,4-2[16:1],,,,,,5,3,6,4,7,5,8,,
2-4[16:1],,5-7[16:1],,,,,,4,6,4,6,3,5,2<6[4:1],,,,6>2[4:1],,,,2,,,,8,,1/8,,,,
6h[8:1]/4,,,7h[8:1]/5,,,6/8,,1/8,,,,
3h[8:1]/5,,,2h[8:1]/4,,,1h[8:1]/3,,,2/8,,,,,4/5,,,,5,4,
3h[8:1]/5,,,4h[8:1]/2,,,1/3,,1/8,,,,
6h[8:1]/4,,,5h[8:1]/7,,,8h[8:1]/6,,,7h[8:1]/1,,,
2h[8:1]/8,,,3h[8:1]/1,,,2h[8:1]/4,,,3/5,,,,,4,5,
6h[8:1]/4,,,5h[8:1]/7,,,6h[8:1]/8h[8:1],,,,
6h[8:1]/4,,,3h[8:1]/5,,,4h[8:1]/2,,,1h[8:1]/3,,,2/8,,
3,3,5,5,4,4,6,6,3,3,5,5,4,4,6,6,
3,3,4,4,5,5,6,6,3,3,4,4,5,5,6,6,
{4}4b^1[16:1],{32}8,7,6,5,8,7,6,5,
{4}4b^1[16:1],{32}8,7,6,5,8,7,6,5,4b,,,,
1b,2,3,4,5,,,,8b,7,6,5,4,,,,1b,2/8,3/7,4/6,{16}5,,
4/5,,4/5,,4,,5,4,6,3,7,,{32}1b,8,7,6,5,,,,8b,1,2,3,
{4}4^1[8:1]/5^8[8:1],4-8[8:1]/5-1[8:1],4/5,2b/7b,
{16}
1/8,,3/6,,
1-5[16:1],8-4[16:1],,1,8,,1,1,,
7-5[16:1],8-4[16:1],,7,8,,7,7,,
2-4[16:1],1-5[16:1],,2,1,,2,,1/7,,
2/8,,3/6,,
8-4[16:1],1-5[16:1],,8,1,,8,8,,
2-4[16:1],1-5[16:1],,2,1,,2,2,,
7-5[16:1],8-4[16:1],,7,8,,7b,,2b/8b,,
1/7,,3/6,,
1-5[16:1],8-4[16:1],,1,8,,1,1,,
7-4[16:1],8-3[16:1],,7,8,,7,7,,
2-5[16:1],1-6[16:1],,2,1,,2,,1/7,,
4h[16:3]/3,,,1,,,5h[16:3]/6,,,8,,,4/5,,3/6,,
1h[16:3]/2,,,4,,,8h[16:3]/7,,,5,{8},1b/8b,2b/7b,
1-6[8:1]/6-1[8:1],1-4[8:1]/6,,,5^2[8:1]*^8[8:1],5,5,,
3-8[8:1]/8-3[8:1],8-5[8:1]/3,,,4^1[8:1]*^7[8:1],4,4,,
1-6[8:1]/6-1[8:1],1-4[8:1]/6,,,5^2[8:1]*^8[8:1],5,5,,
3/8,2/7,1/6,{16}4,5,4,,,2b/7b,,,,,
{8}3-8[8:1]/8-3[8:1],8-5[8:1]/3,,,4^1[8:1]*^7[8:1],4,4,,
1/6,1/6,3/8,{16}3/8,2/7,1/6,,,4/7,,,1/5,,
7h[8:1]/5,,,2h[8:1]/4,,,8h[8:1]/6,,,1h[8:1]/3,,,1/8,,
3h[8:1]/1,,,6h[8:1]/8,,,4h[8:1]/2,,,5h[8:1]/7,,,2/7,,4/5,,,,
{1}7h[1:3]/2b,{4},1b,{16},,4,,,5,,,4,,,6,{8},3,,,,,
1-4[8:1],5-8[8:1],,,,,4/5,,4/5,
{16}
5h[8:1]/7,,,4h[8:1]/2,,,6h[8:1]/8,,,3h[8:1]/1,,,1/8,,1/8,,
1h[8:1]/3,,,8h[8:1]/6,,,2h[8:1]/4,,,7h[8:1]/5,,,2/7,,
4/8,,4/8,,3/7,,3/7,,2/6,,2/6,,1/5,,1/5,,1,5,2,6,3,7,4,8,
{32}5b,4,3,2,1,8,7,6,5,4,3,2,1,8,7,6,
{8}5bv2[8:1]*v8[8:1],,5b,,
1v4[8:1]*v6[8:1],2/8,1,,
4-8[8:1]/8-4[8:1],4^1[8:1]/8,,,8-4[8:1],1/7,3/8,2,
1-5[8:1]/5-1[8:1],5^8[8:1]/1,,,1-5[8:1],2/8,1/6,7,
1/8,7-4[8:1]/2,3/6,2b/7b,3,{16},3/6,{8}3/6,,
1v4[8:1],4^1[8:1],6,7,
8v5[8:1],5^8[8:1],2,3,
4^1[16:1],4,{32}8,7,6,5,8,7,6,5,
{16}8h[8:1]/4b,,,1h[8:1]/5,,,3/6,,
5h[8:1]/7,,,8h[8:1]/6,,,4h[8:1]/2,,,1h[8:1]/3,,,2/7,,4/5,,
2h[8:1]/4,,,3h[8:1]/1,,,7h[8:1]/5,,{32}5,4,3,2,1,8,7,6,
{4}5bv2[8:1]*v8[8:1],{1}5b,,,,E
- どうしてもわからないところがあったので一部無理やりです。修正協力お願いします。力不足で申し訳ないです。 -- Sea (2018-06-20 03:45:00)
- Re:MAS追加…ホールド一個見逃してるくらいには間違ってますので仮置きということでおねがいします(リアルで時間が無かったので修正は後日)。あと一部やっぱりリズムがわからなかったので修正のご協力をおねがいします。 -- Sea (2018-08-22 21:22:49)
- 見落としのノーツと{1}3b/7b,,,,以降の後半部分を全体的に修正しました。引き続き修正箇所等ありましたら指摘・修正おねがいします。 -- Sea (2018-08-23 15:22:48)
- MASTER譜面に誤りがあったので、EACH縦連前の1-5[8:1]/8,→1w5[8:1]/8,、休憩地帯前の2/7,→3/6,、ラスサビのスライド前の1-5[16:1],3,5,7,→1-5[16:1],5,3,7,に修正しました。 -- けもがみ (2020-12-31 08:07:38)
- 有り難うございます。確認したところ、あってました! -- 嵐雅 (2020-12-31 15:55:37)
- MASTER譜面のスライドの速さを修正しました。 -- けもがみ (2026-01-10 15:54:25)
- Re:MASTER譜面のノーツの配置ミス、SLIDEの速度の修正を行いました。 -- けもがみ (2026-02-09 22:04:49)
最終更新:2026年10月04日 21:10