EASY
BASIC
ADVANCED
EXPERT
(202){8}
3h[8:3],,,4h[8:3],,,5h[8:3],,,6,,,,,,,
6h[8:3],,,5h[8:3],,,4h[8:3],,,3,,,2/7,,,,
2h[8:3],,,4h[8:3],,,5h[8:3],,,7,,,1/8,,2/7,,
6h[8:3]/3,,,4h[8:3],,,2h[8:3],,,8w4[4:1],,,,,,,
1/2,,3/8,,7,7,1,1,5,,3,4,3,,5/6,,
7/8,,1/6,,2,2,8,8,4,,6,5,6,,3/4,,
1/2,,3/8,,6,6,8,8,4,,2,4,2,,4/6,,
2-5[8:1]/8,,7-4[8:1],,1-5[8:1],,7,,
4/8,4/8,3/7,3/7,2b-5[8:1]/6,,,,
1/7,,2,3/4,,7,5/6,,1,3/4,,8,5-1[8:1]/6,,,,
2/8,,7,5/6,,2,3/4,,8,5/6,,1,4-8[8:1]/3,,,,
1,2,3,8,7,6,2,3,4,7,6,5,3h[4:1],,2,,
1-5[8:1],,6,,8-4[8:1],,3,,
1/5,1/5,2/6,2/6,{2}7b-4[8:1]/3,
2pp5[2:3],,6,6,7qq4[2:3],,3,3,
{8}
2h[8:3],,,4h[8:3],,,5,,
7h[8:3],,,5h[8:3],,,4,,
3h[8:3],,,2<5[8:7],{1},{8},,4/5,,
2^5[8:1]/1,,8,,7,7,,4/6,,3/5,3/5,,2/4,,5/7,,
7^4[8:1]/8,,1,,2,2,,3/5,,4/6,4/6,,5/7,,2/4,2/4,,
7/8,7/8,,6,5,4,3,,1/2,1/2,,3,4,5,6,,
7,7,1,1,2/6,2/6,3/5,,2,2,8,8,3/7,3/7,4/6,,
7,7,1,1,2/6,2/6,5-1[8:1]/3,,4,,4-8[8:1],,5,,2b/7b,,
6,6,4,4,3/7,3/7,2/8,,3,3,5,5,2/6,2/6,1/7,,
6,6,4,4,3/7,3/7,8bpp3[8:5]*qq5[8:5]/2,,,,,,,,,
{1}1h[1:7],2,3,4,5,6,7,8w4[2:1],
{4}5h[1:2]/4,3,2,1,8,1,2,3,4h[1:2],6,7,8,1,8,7,6,
{8}5,5,4,4,3,3,2,2,1,1,8,8,7,7,6,6,5,4,3,2,1,8,7,6,
{16}5,4,3,2,1,8,7,6,{8}5,,2b/7b,,
7/8,,3,3/4,,6,5/6,,2,2/4,,7,5/7,,2/4,,
1/2,,6,5/6,,3,3/4,,7,5/7,,2,2/4,,5/7,,
3/4,,7,7/8,,2,1/2,,6,6/8,,3,1/3,,6/8,,
5/6,,2,1/2,,7,7qq4[4:3]/8pp3[4:3],,{1},
{8}
2h[4:1]/5h[4:1],,,2/5,,,,,4h[4:1]/7h[4:1],,,4/7,,,,,
1h[4:1]/5h[4:1],,,1/5,,,,,4h[4:1]/8h[4:1],,,4/8,{4},,
2-5[8:1],,7-4[8:1],,2-6[8:1],,7-3[8:1],,1-5[8:1],6,8-4[8:1],3,
{16}2,,2,,7,,7,,1,8,1,8,1,8,1,8,{2}2b/7b,,,
{8}5,4,2b/7b,,
3-8[8:1]/4,,6,6,7,8,1/6,,6-1[8:1]/5,,3,3,2,1,3/8,,
4-8[8:1]/3,,1,1,{16}2h[16:3],,,4h[16:3],,,5,,7h[16:3],,,5h[16:3],{8},4,2-6[8:1],,1,,
7-3[8:1],,8,8,1,2,3/6,,2-6[8:1]/8,,1,1,8,7,3/6,,2h[4:1],,4h[4:1],,5h[4:1],,7,,
7/8,7/8,1/6,1/6,2/5,2b/5b,,,
2,4,2,2,7,5,7,7,2,1,3/8,3/8,7,8,1/6,1/6,
2-6[8:1],,1-5[8:1],,8-4[8:1],,7-3[8:1],,1,1,1,,
{16}2/4,,,4/5,,,5/7,,{8},1/8,2b/7b,,5,4,3/6,,
6,8,6,6,3,1,3,3,6,6,2,2,7,7,3,3,
4/8,4/8,3/7,3/7,2b-5[8:1]/6b,,,,
7/8,,4,2/8,,5,1/7,,4,1/2,,5,8-4[8:1]/7,,,,
1/2,,5,1/7,,4,2/8,,5,7/8,,4,1-5[8:1]/2,,,,
3/4,,8,4/6,,1,3/5,,8,5/6,,1,3-8[8:1]/4-7[8:1],,,,
{1}1b,
{16}4/5,,4/5,,3/6,,3/6,,2/7,,1,8,1,8,1,8,1,,,,2b/7b,,,,8,,7,,5/6,,,,
6h[16:3],,,7h[16:3],,,8,,1,,2,,3/4,,,,
3h[16:3],,,2h[16:3],,,1,,8,,7,,5/6,,,,
2/4,,,4/5,,,5/7,,1-4[8:1]/8-5[8:1],,,,,,,,
{12}6,6,6,5/7,,,3,3,3,2/4,,,7,7,7,6/8,,,2,2,2,1/3,,,
{8}6,5,4/7,3,4,2/5,3/6,3/6,7,5,4/8,2,4,1/5,2/6,,
7-4[8:1],7,2-5[8:1],2,7-3[8:1],7,2-6[8:1],2,
8-3[8:1],8,1-6[8:1],1,8-4[8:1],8,1-5[8:1],1,
{1}8b,
{16}5,,6,,7,,8,,1,2,3,4,5,6,7,8,
{1}1b>5[4:15],6,7,8,1b,,,,E
MASTER
(202){8}3h[8:3],,,4h[8:3],,,5h[8:3],,,6h[8:7],,,,,,,
3>6[4:5],,,6,,,5,,,4,,,8b,,,,4,,,3,,,2,,,1,,,8,,1,,
2/7,,,3/6,,,4/5,,,,,,{16}4,5,3,6,2,7,1,8,
{1}2h[4:7]/7bpp4[8:5],{8}3,,,5,,,7,,
{1}7h[4:7]/2qq5[8:5],{8}6,,,4,{4},2b-6[8:1],
7-1[8:1]/2,3-5[8:1]/7,6-2[8:1]/3,3-7[8:1]/6,
6-4[8:1]/3,2-8[8:1]/6,7-3[8:1]/2,2/7,
{12}1,4,3,8,5,6,2,4,3,7,5,6,
{8}3/4,5/6,1pp4[8:3]/8qq5[8:3],2/7,,,,,
{16}
2b/7b,,1,8,1,,2/7,,1,5,1,5,2,6,2,6,
3/7,,2,1,2,,3/7,,8,4,8,4,7,3,7,3,
2/6,,7,8,7,,2/6,,3,6,3,6,2,5,2,5,
1/4,,2/5,,3^8[8:1]/6,,7,,{24}8w4[8:1]/3,7,6,5,,,{4},
{16}
2/6,,7,8,7,,2/6,,1,7,2,6,3,5,4,8,
3/7,,2,1,2,,3/7,,8,2,7,3,6,4,5,1,
{12}8,8,8,4,4,4,6,6,6,2,2,2,
{8}1/5,2/6,3/7,4/8,1-6[8:1]/5-2[8:1],,1b>8[1:3],,5h[2:7],,,,{1},,,
{8}
1,,4h[8:1],5h[8:1],3h[4:1],4,6h[4:1],5,
2h[8:3],3,4,5h[4:1],,4h[8:3],5,6,7h[4:1],,8h[4:1],,1h[8:3],,,2h[8:3],,,
{16}1,8,7h[8:1],,1,2,3h[8:1],,8,7,6h[8:1],,2,3,4h[8:1],,5,4,5,4,
{8}5,6,3,2,7,8-4[8:1],1,2,,3/4,4/5,5/6,
{16}
7,6,5,4,3,2,1,8,3/7,4,5,6,7,8,1,2,
3/6,5,4,3,2,1,8,7,2/6,3,4,5,6,7,8,1,
2,7,1,8,2,7,{8}1h[4:1],,8,7,6^1[8:1],
6,{24}2,3,4,{8}5,8h[4:1],,1,2,3^8[8:1],
3,{24}7,6,5,{8}4,1b,,
{16}
1,4,1,4,1,4,2/5,,3/6,,4/7,,5/8,,,,
8,5,8,5,8,5,4/7,,3/6,,2/5,,1/4,,,,
1,4,1,4,1,4,{8}2/5,3/6,4/7,1/8,,
3<6[8:1],6,3,{24}7,8,1,{8}2,4/5,2/7,,
{16}
7,6,7,6,7,6,5/8,,4/7,,3/6,,1/8,,,,
2,3,2,3,2,3,1/4,,2/5,,3/6,,1/8,,,,
7,6,7,6,7,6,5/8,,4/7,,3/6,,1-5[8:7]/8,,,,
2,,,8,,,3,,,7,,,4,,{1}6b,
1h[1024:1],
{96}2h[1024:1],7,,{32},,,{8},,,{2},
{96}3h[1024:1],6,,{32},,,{8},,,{2}5,
{96}4h[1024:1],5b,,{32},,,{8},,,{2},
{96}5h[1024:1],4,,{32},,,{8},,,{2}4,
{96}6h[1024:1],3,,{32},,,{8},,,{2},
2qq7[8:5]/7h[1024:1],,
{4}6h[8:7],5,5,{16}5,,1,2,
{4}3h[2:1],4,6h[8:3],{16}5,,1,2,
3h[8:3],,,,4,,8,7,6h[8:3],,,,5,,1,2,
{8}3h[4:1],4,6h[4:1],5,2h[4:1],3,7h[4:1],6,1h[2:1],2,2,2,8h[2:1],7,7,7,
{16}3,4,3,,6,5,6,,2,4,3,,7,5,6,,1,4,3,,8,5,6,,1,3,2,,8,6,{8}7,
2/4,3,5/7,6,1-4[8:1]/8-5[8:1],2/7,,,
{16}3h[4:1]/4,5,6,7,8,,8h[4:1]/1,2,3,4,5,,6h[4:1]/5,4,3,2,1,,1h[4:1]/8,7,6,5,4,,{2}3>8[8:1]/4v7[8:1],
{16}6h[4:1]/5,4,3,2,1,,1h[4:1]/8,7,6,5,4,,3h[4:1]/4,5,6,7,8,,8h[4:1]/1,2,3,4,5,,{2}5q1[8:1]/6p2[8:1],
{16}1h[4:1]/8b,7,6,5,4,,4h[4:1]/3,2,1,8,7,,6h[4:1]/7,8,1,2,3,,3h[4:1]/4,5,6,7,8,,{2}1^6[8:1]/8^3[8:1],
{16}8h[4:1]/1,2,3,4,5,,5h[4:1]/6,7,8,1,2,,3h[4:1]/2,1,8,7,{8}6,4/5,3,4/5,6v7[8:1],2v3[8:1],,,
5-2[8:1],,,1s5[4:1],,,,,8-3[8:1],,,4z8[4:1],,,,,
5-1[8:1],,,3s7[4:1],,,,,8-4[8:1],,,5,{16}1b/8b,1b/8b,2b/7b,,,,,,
{6}8-5[8:1]/4,1,2,3-8[8:1]/7,4,5,6-3[8:1]/2,7,8,1-6[8:1]/5,2,3,
{8}4/5,6,4/5,3,4/5,7,4/5,2,4/5,2/6,4/5,3/7,
{16}2,6,2,6,5-1[1:1]/1,2/6,3/7,4/8,{1}1b/5b,
{8}5w1[8:1],,,,3/4,5/6,{32}4,3,2,1,8,7,6,5,
{16}
8b-4[8:1]/4b,,8,,2,,2,,4,3,2,1,7,6,5,4,
1-5[8:1],,1,,7,,7,,5,6,7,8,2,3,4,5,
7^4[8:1],,7,,3,,3,,1h[16:3]/2-5[8:1],,,2,1,,6,,
8h[16:3]/7-4[8:1],,,7,8,,3,,{4}2-4[8:1]/5-1[8:1],2b/5b,
{16}7^4[8:1],,7,,3,,3,,1h[16:3]/2-5[8:1],,,2,{8}1,6,
7b-4[8:1]/4,3,2,1,8-3[8:1]/4b,5,6b,7,,1/8,1b-5[8:1]/8b-4[8:1],2/7,{16}1b/8b,,,3/6,{8},1/8,
2b/7b,2b/7b,2b/7b,2bz6[4:1]/7bs3[4:1],2b/7b,,,{24},5,4,
{1}5<4[8:5],
{12}1,1,1,{16}4,5,6,7,
{12}3,3,3,{16}5,6,7,8,2,3,4,5,6,7,8,1,
{12}6,6,6,{16}3,2,1,8,7,6,5,4,
3/7,2/6,1/5,4/8,7b-2[16:1]/3b-6[16:1],,,7b/3b,,,1bs5[16:3]/5b,,,,,,8b,,,,
{12}4,4,4,{16}7,6,5,4,
{12}1,1,1,{16}4,5,6,7,
1,2,3,4,1,8,7,6,3,4,3,4,1,8,1,8,5,6,5,6,1,8,1,8,
{8}2/7,3/6,5-1[8:1]/4-8[8:1],3/6,4/5,,
{24}1b/8b,2/7,3/6,{8}4/5,
7h[8:3]/2,3,4,5h[8:3],7,8,1h[8:3],5,4,3h[8:3],1,8,7h[4:1],6,2h[4:1],3,
6h[8:3],2,1,8h[8:3],6,5,4h[8:3],8,1,2h[8:3],4,5,6,3/7,{16}4,8,4,8,
{4}7qq8[4:1]/3qq4[4:1],7b/3b,,
{8}8h[8:3]/4,3,2,1h[8:3],8,7,6,1/5,2/6,3/7,
{96}8h[1024:1],4,,{32},,,{8},,,
{96}1h[1024:1],5,,{32},,,{8},,,
4b/8,3b/7,2b/6,1b/5h[8:3],,
{24}2,1,8,7,6,5,4,3/6,2/7,{8}1s5[8:1]/8z4[8:1],,1b/8b,,
{16}
3,4,2,5,1,6,8,7,1,,6,5/7,,3,2/4,,
6,5,7,4,8,3,1,2,8,,3,2/4,,6,5/7,,
8-4[8:1],,2-6[8:1],,8,,2,,1h[8:1],,,2h[8:1]/8h[8:1],,,3/7,,1,8,2,7,3,6,4,5,
{12}3b,3,3,2,2,2,1b,1,1,8,8,8,7b,7,7,6,6,6,
{16}4b,5,3,6,2,7,1,8,2b/7b,,{24}4,5,3,{8}4,2/5,
1-3[8:1],1,8-4[8:1],8,1-5[8:1],1,8-6[8:1],8,1,
{16}4,5,3,6,2,7,1/8,,2/7,,{24}5,4,6,{8}5,
7-3[8:1]/4,7,2-6[8:1],2,8-4[8:1],8,1,1,
{16}2/6,3/7,4/8,1/5,{24}2,3,4,5,6,7,{2}1b/8b,
{16}1-5[8:1],7,3,5,{8}1b,,4/6,2/5,3/7,1/6,
{24}4b/8b,3,2,1b,8,7,3b/6b,2,1,8b,7,6,
{1}1b/5b,,,,1b,,,,E
Re:MASTER
- 作成していただいた初稿をベースに数箇所の修正・変更と整形をしました。とても大変な書き出しを行ってくれた方、ほんとにありがとうございます。 -- Sea (2018-07-26 13:09:51)
- ホールドの長さに関してだけは完全に私的判断なので、改悪でしたら申し訳ありません…。どうしてもホールド終点とタップがかぶってるように見えなかったので… -- Sea (2018-07-26 13:11:12)
- 主な変更点は以下 -- Sea (2018-07-26 13:15:14)
- {32}8w4[8:1]/3,7,6,5,,,,,→{24}8w5[8:1]/3,7,6,5,,, -- Sea (2018-07-26 13:18:14)
- {8}15,26,37,84,1b-6[8:1]/5-2[8:1],,{4}1>8[4:12],5h[4:14],→{8}1/5,2/6,3/7,4/8,1-6[8:1]/5-2[8:1],,1b>8[1:3],,5h[2:7], -- Sea (2018-07-26 13:19:04)
- 5h[4:1],,4h[4:1],5,6,→5h[4:1],,4h[8:3],5,6, -- Sea (2018-07-26 13:20:15)
- {16}8,4,8,4,→{16}4,8,4,8, -- Sea (2018-07-26 13:21:40)
- {16}1-5[8:1],5,3,7,1b,,,,→{16}1-5[8:1],7,3,5,1b,,,, -- Sea (2018-07-26 13:22:34)
- 私のほうが間違っている可能性も勿論ありますので、「これは違う」といった意見などあれば修正・コメントおねがいします -- Sea (2018-07-26 13:35:32)
- EXPERT補完しました。修正箇所等ありましたら手直しをおねがいします。 -- Sea (2018-07-26 20:53:02)
- 自分で書いた部分のwスライドが1本終点終点指定ミスしてました。MAS:3^8[8:1]/6,,7,,{24}8w5[8:1]/3,→3^8[8:1]/6,,7,,{24}8w4[8:1]/3, -- Sea (2018-07-26 21:56:21)
- MASTERのスライドを数本調整しました。おそらくこれでMASTERに関しては(極短ホールド擬似イーチを除いて)ほぼ完成だと思います。最初に書き出してくださった方改めてありがとうございました。 -- Sea (2018-07-27 08:35:09)
- 個人的になんですけどBPM202.05のほうがしっくりきます -- 名無しさん (2018-08-20 22:06:46)
- あと950コンボ目のイーチ4じゃなくて3です -- 名無しさん (2018-08-20 22:07:25)
- ↑自分で修正してもいいのよ。それかどの行かkwsk頼む -- 名無しさん (2018-08-21 15:10:23)
- それっぽいとこ見つけたから直した。誰でも編集できるってwikiらしくていいよね;4,5,6,4/7,{16}4,8,4,8, {4}7qq8[4:1]/3qq4[4:1],→4,5,6,3/7,{16}4,8,4,8, {4}7qq8[4:1]/3qq4[4:1], -- 名無しさん (2018-08-21 15:15:16)
- 最初に書いた者です。初めて解析したので間違えだらけでしたね。すみませんでした。修正してくれた方ありがとうございます! -- じょーじ (2018-08-21 19:37:10)
- 私もこれで完成だ!と思って公開してからミスが見つかるのでまだまだですね…ほんとに申し訳ない。修正箇所の指摘・修正ありがとうございます…! -- Sea (2018-08-22 11:35:52)
- {16}4b,5,3,6,2,7,1,8,2b/7b,,{24}3,4,5,{8}4,2/5, →{16}4b,5,3,6,2,7,1,8,2b/7b,,{24}4,5,3,{8}4,2/5, -- 名無しさん (2018-11-09 13:03:09)
- {6}8-5[8:1]/4,1,2,3-8[8:1]/7,4,5,6-3[8:1]/2,7,8,1-6[8:1]/4,2,3, →{6}8-5[8:1]/4,1,2,3-8[8:1]/7,4,5,6-3[8:1]/2,7,8,1-6[8:1]/5,2,3, -- 名無しさん (2018-11-09 13:05:40)
- アンサー音なってる譜面動画みながら打ち込むだけなのにどうしてミスるかねえ -- 名無しさん (2018-11-09 13:05:57)
- 終盤の24分を修正しました {24}3,4,5,{8}4,→{24}4,5,3,{8}4, {24}5,6,4,{8}5,→{24}5,4,6,{8}5, -- ちる (2019-01-16 23:05:40)
- 1-6[8:1]/4,2,3,→1-6[8:1]/5,2,3,、1bs5[8:1]/5b,→1bs5[16:3]/5b,、1b/5h[4:1],→1b/5h[8:3],に修正しました。 -- けもがみ (2026-01-11 00:38:07)
最終更新:2026年10月04日 21:11