アットウィキロゴ

keep hopping

アーティスト kamome sano

BPM EASY BASIC ADVANCED EXPERT MASTER Re:MASTER
155 3 6 9 12+ 13+ -

EXPERT MASTER Re:MASTER
譜面制作者 小鳥遊さん サファ太 -

EASY


BASIC


ADVANCED


EXPERT


MASTER

(155){16}
,,,,,,,,,,,,,,,6h[2:1],
,,,,5,,,4h[2:1],,,,,5,,,7h[2:1],
,,,,,,,8,,,,,,,,,
1/2h[2:1],,,,,,,,4,,,,45,,,5/7h[16:9],
,,,,,,,,8,,,,5,4,5,3h[16:5],
,,,,8<4[4:1],,,,1,,,,2,,,,
3h[4:1],,,,8<4[4:1],,,,1,,,,2,,,,
3h[4:1],,,,8<4[4:1],,,,1,,,,2,,,,
3,6,3,6,4,5,4,5,4,6,3,7,2,8,1,
{1}2b>8[16:9]/7b,
{2}1b-4[8:1]*-6[8:1],5bw1[8:1],
{16}3b/7b,,,6,,57,,,78,,3,4,,25,,,
12,,6,5,,47,,,36,,4,5,3,6,2,7,
1b,,,,,12,,2,,23,,2,,24,,6,,
57,,7,,78,,7,,67,,7,,57,,36,,
1,5,1,5,2,6,2,6,3,7,3,7,{32}48,1,2,3,4,5,6,7,
{4}3/8h[2:1],2,1v4[8:1]*v7[8:1],1>8[8:3],

5h[8:3],,1>5[4:1]/5<1[4:1],1s5[16:5]/5s1[16:5],
,,2/6V48[16:3],,
{16}2,,3,3,4pp8[4:1],,,,1,,,,,,2b^5[8:1]/6b,,
,,{24}6,7,8,{16}1,,,3b/8b,,,,,2>7[8:3]/7<2[8:3],,,,
27,,,,,,,,18,,,,36,36,,2,
4,2,7,5,7,1,8,1,8bw4[8:1],,,,,,,,
2h[16:3],,,4,3,,45,,6,5,6,5,8b,,,,
{32}1,2,3,4,5,6,7,8,1,2,3,4,5,6,7,8,1,2,3,4,5,6,7,8,{16}1b/5b,,,,
2h[8:1],,1,1,2h[8:1],,8,,2h[8:1],,7,,2h[8:1]/5h[8:1],,,,
3h[8:1]/4h[8:1],,,,3h[8:1]/4h[8:1],,,,2V48[8:1]/5V38[8:1],,,,,,,,
7h[8:1],,8,8,7h[8:1],,1,,7h[8:1],,2,,3b/6b,,,4h[8:1]/5h[8:1],
,,,34,34,,,4h[8:1]/5h[8:1],,,,57,57,,,,
6h[8:1],,5,5,6h[8:1],,4,,6h[8:1],,3,,1h[8:1]/6h[8:1],,,,
7h[8:1]/8h[8:1],,,,7h[8:1]/8h[8:1],,,,1V74[8:1]/6V84[8:1],,,,,,,,
2h[8:1],,1,1,2h[8:1],,8,,3h[8:1]/6h[8:1],,,,4b/5b,,,27,
1,8,1,8,2,7,3,6,{24}4,5,4,5,4,5,{16}4b,,,,

5h[8:1],,,4h[8:1]/6h[8:1],,,37,,,,,,4,5,,3h[16:3]/6h[16:3],
,,,,2h[8:1]/4h[8:1],,,,5h[8:1]/7h[8:1],,,,36,,36,,
45,45,45,45,45,,,36,,,1>8[8:5]/8<1[8:5],,,,18,,
,,,,,,,,,,,,{12}18,27,36,
{16}4h[8:1]/5h[8:1],,,3h[8:1]/6h[8:1],,,27,,,,8h[4:1],,{24}1,2,3,4h[8:1],,,
2,3,4,5h[8:1],,,8,7,6,5h[8:1],,,7,6,5,{16}4h[8:1],,1b,,,,
3h[8:1],,,2h[8:1]/4h[8:1],,,1-4[8:1]/5,,,,17,,6h[8:1],,,5h[8:1]/7h[8:1],
,,4h[8:7]/8b,,,,,,,,,,,,,,
6,5,7,4,8,3,1,2,4,3,5,2,6,1,7h[8:1],,

{24}1,2,3,{16}4b/8b,,56,,5,7,,18,,34,,2,1,3,
,45,,78,,6,5,7,,18,,56,,3,4,2,
,18,,27,,6,5,8,,17,,34,,2,1,4,
,56,,28,,7,8,5,,2,5,4,7,3,5,1b/6b,
,7,8,,13,,6,4b/7b,,25,,7,1,8,2,4,
,38,,56,,7,8,6,,35,,2,8,1,7,5,
,16,,34,,2,1,3,,47,,5,3,8,2,6,
,45,,36,,18,18,,2,4,3,5,4,6,5,7,
1>7[4:1],8,2,7,1b,,,,
,,,,3b/6b^3[8:1],,2,,1q5[8:1]/6,,1,,18,,7,,
6,4,5,3,4,,1,7h[8:1],,8,,57,,3,4,,
18,,2,,3^6[8:1]/6,,7,,3/8p4[8:1],,8,,18,,2,,
3,7,4,5,2,6,4,3b/8b,,2,1,,68,,3,2b/5b,
,,38,,2^7[8:1]/7,,6,,2/5q1[8:1],,5,,45,,3,,
2,8,1,7,8,,5,3h[8:1],,4,,13,,7,8,,
1-3[8:1]/6,,5,5,1-7[8:1],,5,5,1-5[8:1],,5,5,1,,6,,
8^5[8:1],,4,4,8^3[8:1],,4,4,8-4[8:1],,4,4,8b,,,,

{1}2<6[2:1]/5,4h[4:3]/7>3[2:1],2>6[2:1]/7h[4:3],2h[4:3]/7<3[2:1],
{8}7h[16:7]/8,,1h[16:3],,,17,17,,
1/2h[16:7],,8h[16:3],,,28,{4}2>8[2:1]/8<2[2:1],
,,,1h[4:3],
6,7,8,{32}1b/8b,27,36,45,{16},,

7,5,6,4,5,3,4,,25,,18,,4-7[8:1]/7,,5,,
2/4-1[8:1],,3,,4/8-4[8:1],,7,,68,,5,,3,,17,,
2,4,3,5,4,6,5,,47,,18,,2/5-2[8:1],,4,,
5-8[8:1]/7,,6,,1-5[8:1]/5,,2,,13,,4,,6,,28,,
3,1,2,8,1,7,8,,16,,45,,3/8^3[8:1],,1,,
5/8^5[8:1],,7,,4-8[8:1]/8,,3,,24,,1,,7,,35,,
14,2,3,4,58,7,6,5,2h[8:1]/4h[8:1],,,,5h[8:1]/7h[8:1],,,,
4-8[8:1]/5,,3,,4/6-1[8:1],,7,,3q5[16:5]/6,,2,,38,,,,
,,,,7b<3[8:1]/8b,,1,,2q6[8:1]/7,,2,,12,,8,,
7,4,6,5,8,1,4,3,5,2,4,3,7-4[8:1],8,6,1,
7,,8,,1/2>6[8:1],,8,,2/7p3[8:1],,7,,78,,1,,
2,5,3,4,1,8,5,6,8,7,1,6,3^8[8:1],4,2,5,
3b,,,,78,,7,,57,,7,,46,,35,,
24,,2,,12,,2,,25,,36,,47,,8,,
2,1,3,8,4,7,5,6,{32}4,3,2,1,8,7,6,5,4,3,2,1,8,7,6,5,
{4}4qq8[8:3]/8qq4[8:3],,,2b/6b,

Re:MASTER


  • 242ノート目(39行) -- 名無しさん (2018-09-11 16:50:42)
  • にエラーが出て使えませんでした。 -- 名無しさん (2018-09-11 16:51:10)
名前:
コメント:

タグ:

+ タグ編集
  • タグ:
最終更新:2026年10月04日 21:06