EASY
BASIC
ADVANCED
EXPERT
MASTER
(184)
{4}5b<4[4:10]/3h[4:1],,,5h[4:1],,,7h[4:1],,,1h[4:1],,,
{8}3,2,1,,6,5,,5,,5,4h[8:1]/6h[8:1],,3b/7b,,
4b/8b,1b/5b,,1b/5b,4b/8b,,4-1[8:1]/8-5[8:1],1b/5b,,,
6h[8:3],,5,4h[8:3],,8^5[4:1],8h[2:1],,,,1,,
2h[8:3],,1,8h[8:3],,4^1[4:1],4h[2:1],,,,5,,
6h[4:3],,5,5,,,3h[4:3],,2,2,,,
8h[4:3],,7,7,,,1h[2:1],,2,2,3,,
1h[8:1]/5h[8:1],,2h[8:1]/6h[8:1],,3h[8:1]/7h[8:1],,
1h[8:1]/5h[8:1],,4h[8:1]/8h[8:1],,3h[8:1]/7h[8:1],,
2/6,2/6,4/8,4/8,2/6,2/6,1/5,1/5,8w4[8:1],,,,
2/4,2/4,5/7,5/7,4/6,3/5,2/4,2/4,6-3[8:1]/8-3[8:1],6/8,,,
{16}
5b/7b,,1,8,1,,2b/4b,,8,1,8,,3/7,,2/6,,1h[8:1]/5h[8:1],,,,
2/6,3/7,4/8,1/5,2b-7[8:1]/6b-3[8:1],,,,2/6,,,,
3-8[8:1]/7-4[8:1],,4/8,,,,,,,,1,2,3/4,,,,
4-1[8:1]/8-5[8:1],,,,4/8,,,,1/5,,2/6,,,,
{24}7,8,1,{8}2-5[8:1]*-7[8:1],,,,
4h[8:1]/8h[8:1],,1h[8:1]/5h[8:1],,8-4[8:1],4-8[8:1],,,,,2b/6b,,
5h[4:1],,{16}1,1,7,7,3,3,5,5,,,3/4,,2h[16:3],,,8h[16:3],{8},5,
3-8[8:1]/7-4[8:1],,3/7,,2-7[8:1]/6-3[8:1],3V57[2:1]/7V13[2:1],,,,,,,
1-6[8:1]/5-2[8:1],,1/5,,3/7,4/8,1h[8:3]/5h[8:1],,{24}5,4,3,{8}2,8b,,
1-4[8:1]/5-8[8:1],,1/5,,4/8,3/7,,4/6,1/7,2/5,1/3,5/7,
3/4,{16}7,8,7,,5/6,,2,1,2h[16:3],,,7h[16:3],,,5h[16:3],,,{6}3h[6:1],{48}1b,,,,,,,
{16}6,5,6,,2,1,2,1,,,6/7,,,,3,3,8,,5,6,4h[8:1]/7h[8:1],,,,
3,4,3,,7,8,7,8,,,2/3,,,,6,6,1,,4,3,2h[8:1]/5h[8:1],,,,
1,8,1,,5,4,6,3,,,2/7,,,,2,2,5,,8,7,1h[8:1]/6h[8:1],,,,
4h[8:1]/5h[8:1],,,,8,3,6,2,5,4,
7h[16:3],,,2h[16:3],,,4h[16:3],,,{6}6h[6:1],{48}8h[48:7],,,,,,,
{16}1b^4[8:1],,6,6,1,,,,5,4,5,,7,,2,1,2,,6,5,4h[8:1]/7h[8:1],,,,
8^5[8:1],,3,3,8,,,,4,5,4,,2,,7,8,7,,3,4,2h[8:1]/5h[8:1],,,,
6,5,7,,3,4,2,,7/8,,1/2,,3,4,2,,6,5,7,,1/2,,7/8,,
6,5,7,5,8,,3,4,2,4,1,,6/7,6/7,,2/3,2/3,,1/8,1/8,,,2h[16:1]/6h[16:1],,
{1}3p1[4:9]/7p5[4:9],,{4},,,,
{8}
6^8[8:1]/5,5,6,4,,4,6,3,6,3,{16}5,5,{8}4,
3^1[8:1]/4,4,3,5,,5,3,6,3,6,{16}4,4,{8}5,
7^1[8:1]/6,6,7,4,,4,7,4,7,4,{16}5,5,{8}4,
2^8[8:1]/3,3,2,6,5,6,,5,{2}2bp5[8:1]/6b,
{8}7h[8:1]/6,6,7h[8:1],5,7h[8:1],5,7h[8:1],4,7h[8:1],4,{16}3/7,6,5,4,
{8}2h[8:1]/3,3,2h[8:1],4,2h[8:1],4,2h[8:1],5,2h[8:1],5,{16}2/6,3,4,5,,,
3h[8:1]/4h[8:1],,,7h[8:1]/8h[8:1],,,1h[8:1]/2h[8:1],,,
5h[8:1]/6h[8:1],,,2h[8:1]/3h[8:1],,,6h[8:1]/7h[8:1],{8},1b/8b,,
3/7,3/7,4/8,4/8,1/5,1/5,2/6,2/6,
{16}6qq3[16:21]/2,1/5,4/8,3/7,{4}2qq7[16:17]/6,,,,,,4^7[8:3]/8^3[8:3],,,4b/8b,,,
8b^5[8:1]/4b,{24}4-8[8:1]/8,3,2,{8}1,4,,1<5[8:1],5^2[8:1],1,,1b,,
1,,{24}2/8,3/7,4/6,{8}5>1[8:1]*<1[8:1],,5,,3-5[8:1]/8-6[8:1],,3/8,,4,
5b^8[8:1]/1b,,{24}1-5[8:1]/5,2,3,{8}4,1,,8>4[8:1],4^7[8:1],8,,8b,,
5h[8:1]/4,{24}1,8,7,6h[8:1],,,8,7,6,{4}5-2[8:1],4-7[8:1]/5,5-1[8:1]/4,4/5,
6b^3[8:1]/2b,{24}2-6[8:1]/6,1,8,{8}7,2,,7>3[8:1],3^6[8:1],7,,7b,,
{24}8,1,2,3,,,8,7,6,5,,,8-5[8:1],1,2,3,,,{4}8-3[8:1],8-4[8:1],8,
3b^6[8:1]/7b,{24}7-3[8:1]/3,8,1,{8}2,7,,2<6[8:1],6^3[8:1],2,,2b,,
2/4,{24}5,6,7,8,,,4,3,2,1,,,
5,6,7,{32}8,1,2,3,4,5,6,7,8,1,2,3,4,5,6,7,8,1,2,3,4,5,6,7,
{8}8h[8:3],,1,2h[4:1],,6h[4:3],5,,3,,1,,
{16}8,7,1,6,7/8,,2,1,3,8,1/2,,1,8,2,7,3/6,,
{32}3,2,1,8,{16}7,,4/5,,6,2,6,2,7,3,7,3,4/8,,
1^6[8:1]/5,,,,{24}5,4,3,{8}2,5,4h[8:1]/6h[8:1],,7h[8:1]/8h[8:1],,
{16}5,2,7,3,6,1,5h[16:3],,,7h[16:3],,,1h[16:3],,,{6}3h[6:1],{48}5h[48:7],,,,,,,
{16}4b^1[8:1],,7,7,4,,,,8,8,1,,5/6,,3,4,3,,7,8,1h[8:1]/6h[8:1],,,,
5^8[8:1],,2,2,5,,,,1,1,8,,3,,6,5,6,,2,1,3h[8:1]/8h[8:1],,,,
6,5,7,,3,4,2,,6/8,,4/5,,3,4,1,,6,5,8,,1/3,,4/5,,
{16}
2h[16:3]/3b,,,1b,,,7h[16:3]/6b,,,8b,,,
1h[1024:1]/5b,,,4h[1024:1]/8b,,,2b/7b,,,,8,1,
{2}8b-4[1:1]*V24[1:1],,,3b-7[1:1]*V57[1:1]/7b,{1},6b,,,,,,,,E
Re:MASTER
- 修正箇所等ありましたら修正・加筆をおねがいします。 -- Sea (2018-09-21 15:26:00)
- seaさんいつもありがrとうございます -- A (2018-09-22 00:03:50)
- 32分回転の部分を修正しました -- 名無しさん (2018-09-22 14:23:27)
- ↑2;そう言って貰えることが嬉しいです。/↑1;そこまで24分だったんですね、気づいてませんでした…。修正ありがとうございます…!! -- Sea (2018-09-23 12:37:58)
- MASTER譜面の6h[16:3],,,8h[8:1],,→{6}6h[6:1],{48}8h[48:7],,,,,,,の箇所の修正、SLIDEの速度の修正を行いました。 -- けもがみ (2026-05-17 03:21:21)
最終更新:2026年10月04日 21:08