EASY
BASIC
ADVANCED
EXPERT
MASTER
(137){1},{8}
1,8,7h[8:3],2,1,8h[8:3],,,
7,8,1h[8:3],6,7,8h[8:3],,,
3,2,1h[8:3],4,3,2h[8:3],,,
5,6,7h[8:3],4,5,6h[8:3],,,
2,3,5h[8:3],7,6,4h[8:3],,,
7,5,3h[8:3],2,4,6h[8:3],,,
3,6,7h[8:3],6,3,2h[8:3],,,
3,2,1h[8:3],6,7,8h[8:3],,,
{1}
1h[4:7],
{16}
,,,,,,,,,,,,6b,8b,2b,,
1,,1,8,1,,1,,2,,2,1,2,1,2,,
8,,8,1,8,,8,,7,,7,8,7,8,1,1,
8,,8,7,8,,8,,7,,8,7,1,7,8,,
1,,1,2,1,,1,,2,,3,2,4,3,5,4,
6,,6,5,6,,6,,4,,4,5,4,5,4,,
3,,3,4,3,,3,,5,,5,4,5,4,6,6,
5,,5,6,5,,5,,4,,5,4,6,4,5,,
4,,4,3,4,,4,,5-1[4:1],,5,5,,,,,
8,,8,2,1,,1,,2,,2,1,8,1,8,,
1,,1,7,8,,8,,7,,7,1,8,8,2,,
3,,3,2,1,,1,,8,,1,8,7,8,1,,
6,,6,7,8,,8,,1,,37,,15,,,,
4,,4,3,5,,5,,6,,6,5,4,5,4,,
5,,5,6,4,,4,,3,,3,4,5,4,5,6,
7,,7,8,1,,1,2,3,,3,4,5,,5,6,
7,8,1,2,3,4,5,6,7,,2b/6b,,4b/8b,,,,
1,,8,8,8,,7,,8,,1,1,1,,2,,
1,,1,1,8,,8,8,7,,7,7,6,,6,,
7,,8,8,8,,1,,2,,1,1,1,,8,,
{8}
7,1,2,8,4,,26,,
{16}
8,,7,7,7,,6,,1,,2,2,2,,3,,
2,,3,2,1,,2,1,8,,1,8,7,8,7,6,
7,,6,6,6,,7,,2,,3,3,3,,2,,
{8}
1,6,7,4,5,,3b/7b,,
{16}
1,,7,7,7,,5,,1,,3,3,3,,5,,
1,,2,2,8,,7,7,1,,2,2,1,1,8,8,
7,,3,3,3,,5,,2,,6,6,6,,4,,
{8}
1,5,8,4,5,,37,,
{16}
8,,1,2,3,,4,,1,,8,7,6,,5,,
8,,1,2,1,,8,7,8,,1,2,1,8,7,8,
1,,2,3,4,,5,,8,,7,6,5,4,3,2,
{8}
1b/5b,37,4b/8b,26,3b/7b,,1h[4:1],,
{1}
5,
,
,
,
E
Re:MASTER
(137)
{1},,
{8}1,8,7h[8:3],6,5,4h[8:3],,,
{8}3,2,1h[8:3],8,7,6h[8:3],,,
{8}5,4,3h[8:3],5,6,7h[8:3],,,
{8}8,1,2h[8:3],3,4,5h[8:3],,,
{8}4,3,2^5[8:3],1,8,7h[4:1],,,
{8}6,5,4^7[8:3],3,2,1h[4:1],,,
{8}1,2,3^8[8:3],4,5,6h[4:1],,,
{8}7,8,1^6[8:3],2,3,4h[4:1],,,
{1}4>5[4:5]/5<4[4:5],
{16},,,,,,,,,,,,1b,8b,2b,,
{16}3,,3,4,3,,3,,4h[8:1],,5,4,3,4,5,,
{16}6,,6,5,6,,6,,5h[8:1],,4,5,6,5,4,4,
{16}3,,3,4,3,,3,,4h[8:1],,5,4,3,4,5,,
{16}6,,6,5,6,,6,,5h[8:1],,4,5,6,7,8,1,
{16}2,,2,1,2,,2,,1h[8:1],,8,1,2,1,8,,
{16}7,,7,8,7,,7,,8h[8:1],,1,8,7,8,1,1,
{16}2,,2,1,2,,2,,1h[8:1],,8,1,2,1,8,,
{16}7,,7,8,7,,7,,1w5[8:1],,1,1,,,,,
{16}3,,3,4,2/5,,3,,3,,3,4,2/5,4,3,,
{16}6,,6,5,4/6,,6,,6,,6,5,4/7,5,6,5,
{16}7,,7,8,1/7,,7,,7,,7,8,1/6,8,7,,
{16}2,,2,1,2/8,,2,,2,,3/7,,1/5,,,,
{16}7,,7,8,1/6,,5,,6,,6,5,4/7,3,4,,
{16}2,,2,1,3/8,,4,,3,,3,4,2/5,4,3,4,
{16}3/5,,6,5,4/6,,3,4,2/5,,7,5,4/8,,2/6,,
{16}3,3,5,5,7,7,1,1,3,,2b/6b,,4b/8b,,,,
{16}1-5[8:1],,7,1,8,,8,,8-4[8:1],,2,8,1,,1,,
{16}3-5[8:1],,3,3,7-4[8:1],,7,7,1,,1,2,3/4,5,6,7,
{16}4/8^5[8:1],,4,3,2,,8,,3/8^3[8:1],,3,4,5,6,7,8,
{8}1/5,4/8,2-5[8:1]/6-1[8:1],3/7,2/6,,4/8,,
{16}8-4[8:1],,2,8,1,,1,,1-5[8:1],,7,1,8,,8,,
{16}6-4[8:1],,6,6,2-5[8:1],,2,2,8,,8,7,5/6,4,3,2,
{16}5/1^4[8:1],,5,6,7,,1,,6/1^6[8:1],,6,5,4,3,2,1,
{8}4/8,1/5,3-8[8:1]/7-4[8:1],2/6,3/7,,1b/5b,,
{16}8/7-4[8:1],,8,7,1,,1,,1/2-5[8:1],,1,2,8-6[8:1],,8,,
{16}8-2[8:1],,4,4,8-4[8:1],,4,4,8,,1,2,3/4,5,6,7,
{16}1/8^3[8:1],,7,8,6,,6,,6/5h[2:1],,4,3,2,1,8,7,
{8}6,1/2,3-7[8:1]/4-8[8:1],7/8,3/4,,2/6,,
{16}1/2^5[8:1],,1,2,8,,8,,8/7^4[8:1],,8,7,1^4[8:1],,1,,
{16}1^6[8:1],,5,5,1-5[8:1],,5,5,1,,8,7,5/6,4,3,2,
{16}1/5,,2/6,,3/7,,4/8<4[4:1],,1/5,,3,2,1,8,7,6,
{8}1b/5b,3/7,4b/8b,2/6,3b>7[8:1]/7b<3[8:1],,,,
{1}2/6,
E
- Re:MASTER、アーティスト、譜面制作者を追加しました -- のんきのんき (2026-01-08 10:42:28)
- 難易度を最新版に更新しました -- のんきのんき (2026-01-08 10:43:29)
最終更新:2026年10月04日 21:10