| アーティスト |
good-cool ft. Pete Klassen |
EASY
BASIC
ADVANCED
(127){1}1s5[2:1]/8,{4}
6,6,5,5,4,3,2/5,,5,6,4/7,8,1,8,1/8,,
3,3,4,4,5,6,4/7,,4,3,2/5,1,8,1,2b/7b,,
{8}
3,3,4,,6,6,5,,7/8,,1/2,,3/8,,,,
6,6,5,,3,3,4,,1/2,,7/8,,1/6,,,,
3,3,3/4,,2h[4:1]/5h[4:1],,,,
6,6,5/6,,4h[4:1]/7h[4:1],,,,
2,2,1,,7,7,8,,{4}1/8,2/7,3/6,,
{1}5^2[2:1]/6,4^7[2:1]/3,5-1[2:1]/4,{4}7/8,5/6,3/4,1/2,
{1}8^3[2:1]/7,1^6[2:1]/2,8-4[2:1]/7,{4}3/4,2/5,1/6,7b/8b,
{8}6,5,4/7,,3,4,{4}2/5,3/4,5/6,2/4,,7h[4:1],8h[4:1],1h[4:1],2,3/4,5/6,4/7,,
{8}3,4,2/5,,6,5,{4}4/7,5/6,3/4,4/7,,
{1}7-4[8:3]/8-3[8:3],1-6[8:3]/2-5[8:3],
{4}3/4,5/7,3/4,5/7,4/6,3/5,2/4,,5/6,7/8,{8}1,1,2/8,,3/4,,1/2,,8,8,1/7,,
{4}5/6,2/4,5/6,2/4,3/5,4/6,5/7,,5/6,3/4,{8}2,2,1/3,,7/8,,5/6,,4/5,4/5,3/6,,
{1}1^6[2:1]/2,8^3[2:1]/7,1-5[2:1]/2,{4}3/4,1/2,7/8,5/6,
{1}4^7[2:1]/3,5^2[2:1]/6,4-8[2:1]/3,{4}7/8,1/6,2/5,3b/4b,
{8}2,1,3/8,,7,8,{4}1/6,7/8,1/2,6/8,,3h[4:1],4h[4:1],5h[4:1],6,7/8,1/2,3/8,,
{8}7,8,1/6,,2,1,{4}3/8,1/2,7/8,1/3,,
{1}3-8[8:3]/4-7[8:3],5-2[8:3]/6-1[8:3],
{8}3/4,3/4,2/5,,5/6,5/6,{4}4/7,2/4,5/7,1/5,,2h[4:1],4h[4:1],5h[4:1],7,6/8,4/7,1/3,,
{8}5/6,5/6,4/7,,3/4,3/4,{4}2/5,5/7,2/4,4/8,,
{1}1^6[8:3]/2^5[8:3],7^4[8:3]/8^3[8:3],
{8}4,4,5,5,4,5,3/6,,{16}1/8,,,1/8,,,
{1}2/7,,,,E
EXPERT
(127){4}7-3[4:1],,2h[4:1],1b,
{8}
3,,2/4,,5,4,3/5,,6,,5/7,,4,5,4/6,,
3,,2/4,,5,4,3/5,,6,,5/7,,1/8,,2/7,,
6,,5/7,,4,5,4/6,,3,,2/4,,8,1,2/7,,
4/5,,3/6,,2/7,,1^4[4:1]/8^5[4:1],,,,,,
1b/8b,,,,
5,6,4,3,5,6,4h[4:1],,3,,8,,5,5,1,,
4,3,5,6,4,3,5h[4:1],,6,,1,,4,4,8,,
5,6,4,3,7h[4:1],,5,,
4,3,5,6,2h[4:1],,4,,
5,6,4,3,{4}7h[4:1],5h[4:1],4h[4:1],2h[4:1],7,4/5,
4/6^1[8:1],,3,2/4,5/3^8[8:1],,6,5/7,4/6^1[8:1],,3,2/4,7h[2:1],6,2h[4:1],3,
{8}
5/3^8[8:1],,,,6,6,5/7,,
4/6^1[8:1],,,,3,3,2/4,,
5/3^8[8:1],,,,6,6,5/7,,3,3,2/4,,4/5,,2/7,,
8,8,1,1,2-5[8:1]/8-4[8:1],,,,3/7,3/7,2-5[8:1]/6-1[8:1],,,,4/8,,
1,1,8,8,1-5[8:1]/7-4[8:1],,,,3/7,3/7,2-5[8:1]/6-1[8:1],,,,4/8,,
5,5,4,4,3-6[8:1]/7-2[8:1],,,,8,8,1,1,2-7[8:1]/6-3[8:1],,,,1b/5b,,,,
{16}4h[8:1]/8h[8:1],,,3h[8:1]/7h[8:1],,,2/6,,{2}2-8[8:1]/6-4[8:1],3b/7b,
{8}
2,1,8h[2:1],,5,5,4,,7,8,1h[2:1],,4,4,5,,
7h[4:1],,5h[4:1],,4h[4:1],,2,2,2h[4:1],,4h[4:1],,5h[4:1],,7,,
3,4,5h[2:1],,8,8,1,,6,5,4h[2:1],,1,1,8,,
6h[4:1],,8h[4:1],,1h[4:1],,3,3,3h[4:1],,1h[4:1],,8h[4:1],,6,,
5/3^8[8:1],,,,6,6,5/7,,4/6^1[8:1],,,,3,3,2/4,,
5/3^8[8:1],,,,6,6,5/7,,2h[2:1],,3,,7h[4:1],,6,,
4/7^2[8:1],,,,3,2,1/4,,5/2^7[8:1],,,,6,7,5/8,,
4/7^2[8:1],,,,3,2,1/4,,6,7,5/8,,4/5,,2/7,,
7,8,1,2,1-5[8:1]/7-4[8:1],,,,2/6,2/6,3-8[8:1]/7-4[8:1],,,,1/5,,
2,1,8,7,2-5[8:1]/8-4[8:1],,,,2/6,2/6,3-8[8:1]/7-4[8:1],,,,1/5,,
2,3,4,5,2-7[8:1]/6-3[8:1],,,,7,8,1,2,3-6[8:1]/7-2[8:1],,,,4b/8b,,,,
{16}5h[8:1]/1h[8:1],,,6h[8:1]/2h[8:1],,,7/3,,{2}7-1[8:1]/3-5[8:1],6b/2b,
{8}
8,6,4,3,2-6[8:1]/4-7[8:1],,,,4/8,3/7,2^5[8:1]/6^1[8:1],,,,4/8,,
1,3,5,6,7-3[8:1]/5-2[8:1],,,,5/1,6/2,7^4[8:1]/3^8[8:1],,,,5/1,,
7,6,5,4,3^6[8:1]/7^2[8:1],,,,2,1,8,7,6^3[8:1]/2^7[8:1],,,,1b/5b,,,,
{16}4h[8:1]/8h[8:1],,,3h[8:1]/7h[8:1],
{8},2/6,2^8[8:1]/6^4[8:1],,,,3b/7b,,4/5,,1,1,8,8,4,2,5,7,
{16}4/5,,,1/8,,,
{1}2b/7b,,,,E
MASTER
(127)
{4}3>6[4:1],,,27,{16}3,,6,5,6,,3,4,3,,{4}56,34,1b,8b,{8}3,4,5,
6,{16}3,4,3b,,6,5,{8}6b,34,,5b/6b,3,1,8,6,6,8,1,3,
2,{16}7,5,7,,2,4,2,,{4}57,24,1b,8b,{8}4,5,6,
{4}7-4[8:1],2b-5[8:1],7b,{16}8,4,7,3,6,2,5,1,6,2,7,3,{4}8b-4[8:1],3,
{8}56,7,45,{16}3,4,{8}2,6,7-4[8:1],3,{4}2-5[8:1],7>4[4:1],4,,
{8}34,2,45,{16}6,5,{8}7,3,2-5[8:1],5,{4}7-4[8:1],2<5[4:1],5,,
{8}4h[4:1],3,5h[4:1],6,{2}4^1[8:1],{8}5h[4:1],6,4h[4:1],3,{2}5^8[8:1],
{8}2h[4:1],4,7h[4:1],5,3h[4:1],4,6h[4:1],5,{4}4-8[8:1],1w5[8:1],1,27,
{2}1-5[8:1]/2,{8}34,5,56,7,{2}8-4[8:1]/7,{8}65,4,43,2,
1-5[8:1]/2,,2-6[8:1],,7,{4}7^4[8:1],8-4[8:1],7-3[8:1],2^5[8:1],6,{8}7,
{2}8-4[8:1]/7,{8}65,4,43,2,{2}1-5[8:1]/2,{8}34,5,56,7,
8-4[8:1]/7,,7-3[8:1],,2,{4}2^5[8:1],6-2[8:1],4w8[8:1],4,{8}26,26,,
27,34,27,56,3>7[8:1]/4,{16}5,5,,6,6,,46,,35,3-7[8:1]/5,,24,,13,,,{8}8,16,25,
34,56,{16}2,1,,7,{8}8^3[8:1],6,5,4,35,{16}46,4/6-2[8:1],,57,,68,,,{8}1,38,,
4,78,5,12,{16}4^1[8:1],4,,8,8,,7,,46,,35,3-7[8:1]/5,,24,,13,,,8,,{4}1^4[8:1]/6^1[8:1],
1b/6b,{16},18,18,,2/7-4[16:1],,,7/1-5[16:1],,,1,,6h[4:1],,{24}3,2,1,{4}8w4[8:1],8,2b/7b,
{16}6,5,7,4,{8}8-4[8:1],,3,2,{16}1,7,2,6,3,5,3,6,3,7,3,8,3,1,3,8,3,7,3,6,
2h[16:3],,4,4h[16:3],,6,6h[16:3],,8,8h[16:3],,1,1,,24,,
7h[16:3],,5,5h[16:3],,3,3h[16:3],,1,1h[16:3],,8,8,,75,,
5,7,4,8,3,1,2,2,4,2,5,1,6,8,7,7,5,7,4,8,3,1,2,2,{8}4,78,5,12,
{16}1,3,8,4,7,5,6,6,8,6,1,5,2,4,3,3,1,3,8,4,7,5,6,6,{4}8w4[8:1],8b,
{2}5-1[8:1]/6,{8}78,1,12,3,{2}4-8[8:1]/3,{8}21,8,87,6,
5-1[8:1]/6,,6-2[8:1],,3,{4}3^8[8:1],4-8[8:1],3-7[8:1],6^1[8:1],2,{8}3,
{2}4-8[8:1]/3,{8}21,8,87,6,{2}5-1[8:1]/6,{8}78,1,12,3,
4-8[8:1]/3,,3-7[8:1],,6,{4}6^1[8:1],3-7[8:1],5w1[8:1],5,{8}73,73,,
72,65,72,43,6<2[8:1]/5,{16}4,4,,3,3,,53,,64,6-2[8:1]/4,,75,,86,,,{8}1,83,74,
65,43,{16}7,8,,2,{8}1^6[8:1],3,4,5,64,{16}53,5/3-7[8:1],,42,,31,,,{8}8,61,,
5,21,4,87,{16}5^8[8:1],5,,1,1,,2,,53,,64,6-2[8:1]/4,,75,,86,,,1,,{4}8^5[8:1]/3^8[8:1],
8b/3b,{16},81,81,,7/2-5[16:1],,,2/8-4[16:1],,,8,,3h[4:1],,{24}6,7,8,{4}1w5[8:1],1,7b/2b,
{8}34,18,56,18,3^8[8:1]/4,{16}5,5,,6,6,,57,,46,4-8[8:1]/6,,35,,24,,,{8}1,8,56,
24,57,{16}3,1,,6,{8}8^3[8:1],7,6,5,24,{16}35,3/5-1[8:1],,46,,57,,,{8}8,37,,
36,58,36,14,{16}26,26,,48,4/8-4[8:1],,3,,28,,1,1^4[8:1],,5,,6,,,8,,{4}5^2[8:1]/8^5[8:1],
5b/8b,{16},18,18,,2/7-3[16:1],,,7/1-5[16:1],,,1,,7h[4:1],,{24}4,3,2,1h[4:1],,,5,6,7,{8}8,45,2b/7b,,
2,{16}6,6,1,,7,8,6,1,5,2,34,,,,1b/2b,,,5b/6b,,,{1}3b/7b,,,,E
Re:MASTER
- MASTER譜面を追加しました。修正等ありましたらよろしくお願いします。 -- けもがみ (2026-06-01 01:54:13)
最終更新:2026年10月04日 18:09