アットウィキロゴ

極圏

アーティスト cosMo VS dj TAKA「SOUND VOLTEX」より

BPM EASY BASIC ADVANCED EXPERT MASTER Re:MASTER
207 3 6 9+ 12+ 14 -

EXPERT MASTER Re:MASTER
譜面制作者 小鳥遊さん 華火職人 -

EASY


BASIC

(207.0){1},
{2}1,1,
{2}2,2,
{2}3,3,
{2}4,4,
{1}4/5,,
{4}5,5,5,,
{1}5/6,
{4}4,4,4,,
{1}3/4,
{4}5,5,5,,
{1}4/6,
{4}4,4,4,,
{1}3/5,
{4}6,6,6,,
{4}7,7,7,,
{1}8h[2:1],
{1}1b/7b,
{4}1,1,1,,
{4}2,2,2,,
{1}3h[2:1],
{1}2b/4b,
{1}5h[4:3]/6h[4:3],
{2},4/5,
{4},3h[4:3]/4h[4:3],,,{1},
{1}4/5,
{1}4/5,
{1}3/6,
{1}3/6,
{1}2/7,
{1}2/7,
{1}1/8,
{1}1/8,
{1}8h[2:1],
{1}7h[2:1],
{1}6h[2:1],
{1}5h[2:1],
{2}4,4,
{2}3,3,
{2}2,2,
{1}1b/8b,
{4}1,1,2,2,
{4}3,3,4,4,
{1}5h[2:1]/6h[2:1],
{1}3h[2:1]/4h[2:1],
{4}6,5,4/6,,
{4}3,4,3/5,,
{4}5,5,6,6,
{4}7,7,1/8,,
{4}8,8,7,7,
{4}6,6,5,5,
{1}3h[2:1]/4h[2:1],
{1}5h[2:1]/6h[2:1],
{4}3,4,3/5,,
{4}6,5,4/6,,
{4}4,4,3,3,
{4}2,2,1/8,,
{1}1-5[4:3],,
{1}8-4[4:3],,
{1}1-6[4:3]/2-5[4:3],,
{1}7-4[4:3]/8-3[4:3],,
{1}1h[2:3],
{2}8,8,
{1}8h[2:3],
{2}1,1,
{1}7h[4:3]/8h[4:3],
{1}1h[4:3]/2h[4:3],
{1}3b/4b,
{1}5b/6b,
{1}1b/2b,
{1}7b/8b,
{4}1,1,2,2,
{4}3,3,4,4,
{2}5h[2:3],4,
{2}4,4b,
{4}5,5,6,6,
{4}7,7,8,8,
{4}1,1,8,8,
{2}1h[2:1],8,
{4}8,8,7,7,
{4}6,6,5,5,
{2}4b/6b,3b/5b,
{2}4b/6b,3b/5b,
{4}4,4,3,3,
{4}2,2,1,1,
{4}8,8,1,1,
{2}8h[2:1],1,
{4}8,8,7,7,
{4}6,6,5,5,
{4}4/5,4/5,3/6,3/6,
{4}2/7,2/7,1/8,1/8,
{1}1h[1:2],
{1}8h[1:1],
{4},2h[4:15]/7h[4:15],,,{1},,,,
E

ADVANCED

(207.0){1},
{4}5/6,5/6,3/4,3/4,
{4}5/6,5/6,3/4,3/4,
{4}5,5,4/6,4/6,
{4}3,3,3/4,2p5[8:5],{1},
{4}3/4,5/6,2b/7b,,
{4}6,6,5/7,5/7,
{4}4,3,2/5,2/5,
{4}3,4,5,4/6,
{1}7^2[2:1],
{4}3,3,2/4,2/4,
{4}1,8,2/7,2/7,
{4}8,1,2,3^8[4:3],{1},
{4}6,5,4/7,4/7,
{4}3,4,2/5,2/5,
{4}3,4,5/6,7q4[4:3],{1},
{4}5,4,3/6,3/6,
{4}4,5,3/6,3/6,
{4}5,4/6,3/7,2/8,
{2}1h[2:1],8b,
{4}1,2,3,4,
{4}5,6,7,1/8,
{4}7,6,5,4>7[4:3],{1},
{1}6b/5h[1:1],
{1}7h[1:2],
{1}8h[1:1],
{2},7/8,
{1}2/1h[1:1],
{1}3h[1:2],
{1}4h[1:1],
{2},2/5,
{2}3h[2:1],4,
{2}6h[2:1],5,
{2}2h[2:1],1,
{1}3/8,
{1}2h[2:1]/5h[2:1],
{1}4h[2:1]/7h[2:1],
{1}3h[2:1]/6h[2:1],
{8}4,4,4,,5,5,5,,
{4}4b/6b,7,8,1,
{4}2/7,3/8,2/7,1>6[4:3],{1},
{4}7,8,1/6,,
{4}2h[4:1],1,3/8,,
{4}7h[4:1],8,1/6,,
{4}5/7,5/7,2/4,2/4,
{4}1/8,2/7,3b/6b,,
{4}2/8,3,4,5,
{4}3/6,4/7,3/6,5<2[4:3],{1},
{4}3/4,3/4,2/5,,
{4}7h[4:1],8,1/6,,
{4}2h[4:1],1,3/8,,
{4}2/4,3,4/6,5w1[8:5],{1},
{4}3b/8b,2,1,1,
{4}1/6,7,8,8V25[4:3],{1},
{4}4/6,3/7,2/8,,
{4}4/7,6,5,5,
{4}2/5,3,4,5V37[4:3],{1},
{2}1h[4:1]/8h[4:1],2/7,
{4}3,3,4,5,
{4}4/6,3/7,2/8,1,
{8}8,8,8,,1,1,1,,
{8}1/8,1/8,1/8,,2/7,,,,
{8}6,6,5,,4/7,,,,
{8}3,3,4,,2/5,,,,
{1}1-4[8:3],
{1}5-8[8:3],
{1}1^4[8:3],
{4}4/5,3/6,2/7,1/8,
{8}1h[4:1]/8h[4:1],,,,2/7,2/7,2b/7b,,
{4}3,2/4,6,5/7,
{8}2,2,1/2,,7,7,7/8,,
{8}1,1,1/8,,2/7,,,,
{4}4h[4:1],3h[4:1],2,,
{4}5h[4:1],6h[4:1],7,,
{8}1,1,1,,8,8,8,,
{8}2/7,2/7,2/7,,3b/6b,,,,
{4}3/4,2,1,8,
{4}4/7,6,2/5,3,
{8}5/6,5/6,5b/6b,,3/4,3/4,3b/4b,,
{8}7/8,7/8,7b/8b,,1/2,1/2,1b/2b,,
{4}3h[4:1],4,2/5,1/6,
{4}7h[4:1],8,1/6,,
{4}3/4,5/6,4/7,8,
{4}5/6,3/4,2b/5b,,
{4}4/7,4/7,2/5,2/5,
{4}7/8,1/2,3/4,5<2[4:3],{1},
{4}3/4,5/7,2/4,4q3[4:3]/5<2[4:3],{1},
{4}5/6,7/8,1/2,3/8,
{4},2b/6b,
E

EXPERT

(207.0){4},,,1/8,
{4}5/6,3/4,5/7,2/4,
{4}6/8,1/3,{12}4,{995}5,,,,,,,,,,,,,,,,,,,,,,,,,,,,,,,,,,,,,,,,,,,,,,,,,,,,,,,,,,,,,,,,,,,,,,,,,,,,,,,,,,,{12}4,5,,,
{2}3h[4:1]/4h[4:1],6h[4:1]/7h[4:1],
{2}1h[4:1]/2h[4:1],{12}4,{995}5,,,,,,,,,,,,,,,,,,,,,,,,,,,,,,,,,,,,,,,,,,,,,,,,,,,,,,,,,,,,,,,,,,,,,,,,,,,,,,,,,,,{12}4,5,,,
{1}7b/2b<3[2:3],
{4},,,1b,
{8}3h[4:1],,4,,2/5,2/5,,1/8h[8:3],
{4},7h[4:1],6h[4:1],5h[4:1],
{1}4s8[2:1],
{8}1/2,,3/4,,1/2,1/2,,4/8,
{8},,5/6,,4/7,4/7,,8/1h[8:3],
{4},2h[4:1],3h[4:1],4h[4:1],
{1}5z1[2:1],
{8}7/8,7/8,,5/6,,7/8,,1/6,
{8}1/6,,3/4,,2,2,1,1h[8:3],
{4},8h[4:1],7h[4:1],6h[4:1],
{1}5s1[2:1],
{8}1/2,1/2,,3/4,,2,1,2,
{8}3/8,,5/6,,7,7,8,8h[8:3],
{4},1h[4:1],2h[4:1],3h[4:1],
{1}4z8[2:1],
{1}5s1[2:1],
{8}1/8,,3,3/4,,6,5/6,,
{8}2/4,,5/7,,1,8,1,8,
{8}1,,2/4,2/4,,5/7,5/7,,
{6}2h[6:1],3h[6:1],4h[6:1],5h[6:1],6h[6:1],7h[6:1],
{1}8b>7[4:7],,,,
{1}1s5[2:1],
{1}1^4[8:3]/8-5[8:3],
{1}1-4[8:3]/7-4[8:3],
{1}4-8[2:1]/5-1[2:1],
{2}8/1h[2:1],2h[2:1],
{2}3h[2:1],4h[2:1],
{2}8h[2:1],7h[2:1],
{2}6h[2:1],5h[2:1],
{8}4h[2:1],,,,,,4/5,4h[8:5]/5h[8:5],{1},
{1}4-1[2:1]/5-8[2:1],
{16}2/7,,1,8,1,8,1,8,1,8,1,8,1b,,,,
{8}3,4,2,2,5,4,6,6,
{4}5/7,1/7,1/3,3/5<4[1:1],
{1}1,
{4},,1/8,2/7,
{16}1h[16:3],,,2h[16:3],,,3,,3/4,,,,1/5,,,,
{16}8h[16:3],,,7h[16:3],,,6,,5/6,,,,4/8,,,,
{16}2h[16:3],,,3h[16:3],,,4,,7h[16:3],,,6h[16:3],,,5,,
{1}3qq8[2:1]/4pp7[2:1],
{8}6,5,7,7,4,5,3,3,
{4}2/4,2/8,6/8,4/6,
{4}1/2-5[8:1],1,8/7-4[8:1],8,
{4}8/1-5[8:1],8,4b/8b,,
{16}6h[16:3],,,7h[16:3],,,8,,1/8-4[8:1],,,,,,,,
{16}3h[16:3],,,2h[16:3],,,1,,8/1-5[8:1],,,,,,,,
{16}6h[16:3],,,7h[16:3],,,8,,3h[16:3],,,2h[16:3],,,1,,
{4}1-5[4:1]/8-4[4:1],,,2b/7b,
{8}5/6,6,6,,3/4,3,3,,
{8}6,5,4,3,2-6[8:1],,,,
{8}7/8,7,7,,1/2,2,2,,
{8}6/8,,1/3,,1/8,1/8,1/8,,
{8}3,3,4,4,5,5,6,6,
{2}7-3[8:1],1-5[8:1],
{8}3/4,,5/6,,1,1,8,8,
{4}2V41[16:5]/7V58[16:5],,,2b/7b,
{8}3,4,5,6,7h[4:1],,8,,
{8}6,5,4,3,2h[4:1],,1,,
{8}5/7,7,7,,2/4,2,2,,
{8}3,4,5,6,2h[4:1]/7h[4:1],,,,
{4}3-8[8:1]/4-8[8:1],,2,1/3,
{4}5-1[8:1]/6-1[8:1],,7,6/8,
{8}1/7,1/7,,2/8,,1/7,,3/8,
{8}3/8,3/8,,1/6,,3/8,,1/6,
{8}2,2,7,7,1,1,8,8,
{16}2/7,,2/7,,2/7,,2/7,,1,8,1,8,1,8,1,8,
{8}1b,,,,4/5,4/5,3b/6b,,
{4}5/7,1/7,1/3,3/5<4[1:1],
{1}1h[1:1],
{4},,1/8,2/7,
{16}6h[16:3],,,7h[16:3],,,8,,1/8-4[8:1],,,,2,,,,
{16}3h[16:3],,,2h[16:3],,,1,,8/1-5[8:1],,,,7,,,,
{16}6h[16:3],,,7h[16:3],,,8,,3h[16:3],,,2h[16:3],,,1,,
{1}7qq4[2:1]/8pp3[2:1],
{8}6,5,7,7,4,5,3,3,
{4}2/4,2/8,6/8,4/6,
{4}3/4-8[8:1],1b,6/5-1[8:1],8b,
{4}2/4-8[8:1],1b,7/5-1[8:1],8b,
{16}4h[16:3],,,3h[16:3],,,2,,1/2-6[8:1],,,,8,,,,
{16}5h[16:3],,,6h[16:3],,,7,,8/7-3[8:1],,,,1,,,,
{16}2h[16:3],,,3h[16:3],,,4,,7h[16:3],,,6h[16:3],,,5,,
{1}4pp7[2:1]/8pp3[2:1],
{4}3/4,5/6,2/4,5/7,
{4}1/2,7/8,{12}1,{995}8,,,,,,,,,,,,,,,,,,,,,,,,,,,,,,,,,,,,,,,,,,,,,,,,,,,,,,,,,,,,,,,,,,,,,,,,,,,,,,,,,,,{12}1,8,{995}1,,,,,,,,,,,,,,,,,,,,,,,,,,,,,,,,,,,,,,,,,,,,,,,,,,,,,,,,,,,,,,,,,,,,,,,,,,,,,,,,,,,{12}8,
{4}1h[4:1],2h[4:1],3h[4:1],4h[4:1],
{4}5h[4:1],6h[4:1],7h[4:1],8h[4:1],
{16}1b,,,,1,8,1,8,1,8,1,8,1,8,1,8,
{1}1pp5[8:5]*qq5[8:5],
{4},2h[4:15]/7b<8[2:7],,,{1},,,,
E

MASTER

(207){4},,,{12}1/8,,,
6,5,6,3,4,3,6,5,7,3,4,2,
7,5,7,2,4,2,8,5,8,1,4,1,
{4}
2h[6:1]/5h[6:1],6h[6:1]/7h[6:1],1h[6:1]/3h[6:1],
4h[6:1]/6h[6:1],2h[6:1]/8h[6:1],3h[6:1]/4h[6:1],
{12}1,1,1,8,8,8,{1}2h[4:3]/7h[4:3],
{16}2,1,2,1,3,8,3,8,{24}4,5,6,7,8,1,

{8}2b/5b,,
2/7,,5h[4:1]/4,,8,1,2,3h[4:1]/4,,5,3/4,2,3/4,5,3/4,2,
1h[4:1]/8h[4:1],,,4h[4:1]/7h[4:1],,,1-6[8:1]/2,,
2-5[8:1]/1,,1/2,,1/2,1-6[8:1]/2-5[8:1],,1/2,,,
7/8,1,2,3,4,6h[4:1]/5,,4,5/6,7,5/6,4,5/6,7,
1/8,1/8,,2h[4:1]/5h[4:1],,,7-4[8:1]/8,,
7/8,8-3[8:1],,7-4[8:1]/8,,8-3[8:1]/7,,7/8,
7,,2h[4:1]/1,,4,5,6,8h[4:1]/7,,6,7/8,1,7/8,6,7/8,1,
7/8,6,5,4h[4:1]/7h[4:1],,,2-6[8:1]/1,,
1/2,1-5[8:1],,1/2,,2-5[8:1],1-6[8:1],2,
1,,7h[4:1]/8,,5,4,3,2h[4:1]/1,,8,1/2,3,1/2,8,1/2,3,
1h[8:5]/8,7,6,5h[4:1],,,6-1[8:1]/2,3-8[8:1]/7,
6,3,,2V41[4:1]/7V58[4:1],,2/7,,,

7-4[8:1],8,7,2-5[8:1],1,2,
6-1[8:1],4,6,3-8[8:1],5,3,6^3[8:1],,
{16}2,1,8,7,6,5,4,3,{8}2/8,7,1,4/6,8,2,
{6}7h[1024:1],1h[1024:1],6h[1024:1],2h[1024:1],5h[1024:1],3h[1024:1],
{1}4>5[4:11],,,,

1s5[16:9],8>5[2:1]*-5[2:1],2-5[2:1]/8-5[2:1],4-8[2:1]/5-1[2:1],
{2}2b<3[2:7]/7b,3h[4:1],2h[4:1],1h[4:1],8h[4:1],7h[4:1],6h[4:1],5h[4:1],
{8}4h[4:7],,,,,,5,5h[8:7],{1},4z8[2:1]/6z2[2:1],
{16}2/8,,1,1,1,1,1,1,1-5[8:1],1,1,1,{8}1b,,

4/6,4,7/8,7,1/2,2,1-5[8:1]/7,7,8-4[8:1]/1,,2-5[8:1]/8,,7-4[8:1]/2,,3-8[8:1]/7,,
3/6,,{16}7,6,5,4,1,2,3,4,1,8,7,6,1,2,3,4,5,6,7,8,1-4[8:1]/5-8[8:1],,,,1b/5b,,,,
5/7,,,3,3^6[8:1],,7,,6-2[8:1],,,,7b,,,,
1/3,,,6,6^3[8:1],,2,,3-7[8:1],,,,2b,,,,
1-4[8:1]/8,,,8,1,,6,,5h[8:1]/7h[8:1],,,,2h[8:1]/4h[8:1],,,,
1/8,,6,5,6,,3,4,{8}3,4/5,2b/7b,,

4/5,5,1/2,2,7/8,7,8-4[8:1]/2,2,{4}1-5[8:1]/8,6-1[8:1]/1,3-8[8:1]/6,3,
7v4[8:1],7b/8b,2v5[8:1],1b/2b,6v1[8:1],5b/6b,3v8[8:1],3b/4b,
{16}
5/7,,,3,3^6[8:1],,7,,6-2[8:1],,,,7b,,,,
1/3,,,6,6^3[8:1],,2,,3-7[8:1],,,,2b,,,,
5-8[8:1]/4,,,4,5,,4,,1h[8:1]/3h[8:1],,,,6h[8:1]/8h[8:1],,,,
1,8,1,8,2,7,2,7,3/6,,4/5,,2b/7b,,,,

4/7,,6,5,6,,3,4,3,,6,5,6,5,6,,1,2,3,4,7,6,5,4,2,1,2,1,3/8,,,,
{12}1,1,1,8,8,8,{16}2,3,4,5,8,7,6,5,3/4,,2,,5/6,,7,,{24}1,8,1,8,1,8,{16}1b,,,,
2/7,3,4,5,6,7,8,1,6,5,4,3,2,1,8,7,
{8}6^3[8:1],,2,2,1h[4:1],,8h[4:1],,4,4,5,5,3/6,3/6,2/7,2/7,
{16}1,2,3,4,8,7,6,5,{24}2,3,4,5,6,7,{16}1b/8b,,,,

3,4,3,5,3,6,3,7h[16:7],,,8,,1,,2,,3/6,,4/5,,
6,5,6,5,7,4,7,4,1,2,1,2,3/8,7,6,5,4,3,2,1,3/8,4,5,6,7,8,1,2,
3/7,,6,,2/5,,3,,4-1[8:1]/8-5[8:1],,,,4/8,,,,
2/4,,,6,5/6,,,,2-7[8:1]/4,,,,2b/1,,,,
6/8,,,3,3/4,,,,7-2[8:1]/5,,,,7b/8,,,,
{8}
1/3,1-5[8:1]/3,,7-4[8:1]/1,,2-5[8:1]/7,,2/5,
7,8-4[8:1]/7,,2-5[8:1]/8,,7-4[8:1]/2,,4/7,
3,3,6,6,3,2/4,6,5/7,{16}1,8,1,8,1,8,1,8,1,8,1,8,1,8,1,8,{2}2h[4:1]/7h[4:1],
{32}8,7,6,5,4,3,2,1,{4}8b-4[8:1]/4b,

1-5[8:1]/8,7-4[8:1]/1,2-5[8:1]/7,6-1[8:1]/2,3/6,
{16}2,3,4,5,8,7,6,5,8,1,2,3,8,7,6,5,4,3,2,1,
4-1[8:1]/8-5[8:1],,,,4b/8b,,,,
4-8[8:1]/3,,,3,4,,1,,3-7[8:1]/7,6,5,4,1b/3,,,,
5-1[8:1]/6,,,6,5,,8,,6-2[8:1]/2,3,4,5,8b/6,,,,
1-4[8:1]/8,,,8,1,,6,,5h[8:1]/7h[8:1],,,,2h[8:1]/4h[8:1],,,,
1/8,,6,5,7,,3,4,{8}2,3/6,1b/8b,,

4/5,5,1/2,2,7/8,7,8-4[8:1]/2,2,
{4}1-5[8:1]/8,6-1[8:1]/1,3-8[8:1]/6,5-1[8:1]*-8[8:1]/3,5,
4b-1[8:1]*-8[8:1]/5b,4,5bw1[8:1]/4b,5,4bw8[8:1]/5b,4,4b/5b,
{16}
4-7[8:1]/3,,,3,4,,1,,2-7[8:1]/6,5,4,3,1b/2,,,,
5-2[8:1]/6,,,6,5,,8,,7-2[8:1]/3,4,5,6,8b/7,,,,
1-4[8:1]/8,,,8,1,,6,,1h[8:1]/3h[8:1],,,,6h[8:1]/8h[8:1],,,,
1,8,1,8,2,7,2,7,3/6,,4/5,,1b/8b,,,,
{12}4/5,,6,5/6,,3,3/4,,7,7/5,,2,2/4,,7,7/8,,1,1/8,8,8,1,1,1,
{4}8h[4:1]/2,7h[4:1],6h[4:1],5h[4:1],4h[4:1],3h[4:1],2h[4:1],1,1b/8b,
{24}1,8,1,8,1,8,1,8,1,8,1,8,1,8,1,8,1,8,
{16}1,2,3,4,8,7,6,5,1,2,3,4,5,6,7,8,,,,,
{1}2b>8[2:7]/7b<1[2:7],,,,,,,E

Re:MASTER


  • 6/8,,,→5/7,,,、1s5[2:1],→1s5[16:9],の箇所の修正、ノーツの開始位置の修正を行いました。 -- けもがみ (2026-02-23 10:44:21)
  • ↑MASTER譜面です。 -- けもがみ (2026-02-23 10:44:45)
名前:
コメント:

タグ:

+ タグ編集
  • タグ:
最終更新:2026年10月04日 09:32