アットウィキロゴ

B.M.S.

アーティスト 光吉猛修の父

BPM EASY BASIC ADVANCED EXPERT MASTER Re:MASTER
200 3 6 9 12+ 14 -

EXPERT MASTER Re:MASTER
譜面制作者 Jack はっぴー -

EASY


BASIC


ADVANCED


EXPERT


MASTER

(200){8}
35,2,45,4,2-4[8:1]/5,,5,,
35,2,45,4,25,3,45,4,
35,2,45,4,2,2,23,23,
4h[16:1],4h[16:1],4h[16:1],4h[16:1],4h[16:1],4h[16:1],4h[16:1],4,
15,1,15,1,1-4[8:1]/5,,5,,
25,2,45,4,45,3,45,3,
45,4,35,3,25,2,15,1,
2^7[4:1]/5,,5,,5,,4^1[4:1]/5,,
5,,5,,15,2,35,4,
35,2,1pp1[4:1]/5,,5,,5,,
1h[4:1]/5,,5,,15,1,15,1,
{16}1,2,8,7,1,2,8,7,2,3,7,6,2,3,7,6,

45,,4,,45,,4,,35,,,24,,,13,,
5,,45,,45,,45,,46,,,57,,,{8}68,
4,4,4,35,46,5,5,36,
{32}1,2,3,4,5,6,7,8,1h[4:1],,,,,,,,8,7,6,5,4,3,2,1,{16}8,,,,
45,,5,,45,,5,,46,,,57,,,68,,
4,,45,,45,,45,,35,,,24,,,13,,
5,,5,,5,,46,,35,,4,,4,,36,,
4h[32:1],5h[32:1],3h[32:1],6h[32:1],2h[32:1],7h[32:1],1h[32:1],8h[32:1],2h[32:1],7h[32:1],3h[32:1],6h[32:1],{8}4,,
48,8,48,8,4/8-5[8:1],,4,,
47,7,54,5,54,6,54,6,
45,5,46,6,47,7,48,8,
4/7^2[4:1],,4,,4,,45,,

{16}1,2,3,4,1,2,3,4,1,2,3,4,1,2,3,4,
1,2,3,4,1,2,3,4,1,8,1,8,1h[4:1],,,,
8,7,6,5,8,7,6,5,8,7,6,5,8,7,6,5,
8,1,8,1,8,1,8,1,8,1,8,1,{8}8,,
4h[4:7]/5,,,5,5,,,,
5,,,5,,,{16}5,4,{8}5,
{2}4-1[8:1]/5^2[8:1],4-1[8:1]/5^2[8:1],
{8}45,24,45,24,45,24,45,,
,,6,5,4,3q5[8:5],{4}3h[1:1],
,,,6,
{8}5h[8:1],,,3h[8:1],,,,,
{16}68,,,17,,,28,,,13,,,24,,,3,

{4}5,35,25,1-3[8:1]/5,
1-6[8:1]/5,1-4[8:1]/5,15,5,
1h[4:1]/5,{8}5,1h[4:1],{4}5,15,
3-8[8:1]/7-4[8:1],37,26,45,
45,46,47,4/8-6[8:1],
4/8-3[8:1],4/8-5[8:1],48,4,
4/8h[4:1],{8},8h[4:1],{4}4,48,
2-5[8:1]/6-1[8:1],26,37,4b/5b,
{8}7,6,2,3,8h[8:1],,4h[8:1],,
36,,1^4[8:1]/8^5[8:1],,,,,4h[8:3]/5,
,5,5,,4h[8:1],5,4h[8:1],5,
3h[8:1],5,3h[8:1],5,2h[8:1],5,2h[8:1],5,
1h[8:1],5,1h[8:1],5,{16}8,5,8,5,8,5,8,5,
{8}8w4[8:1],,,,,45,,46,
35,4/6h[8:3],,,4,,1-4[8:1]/5-8[8:1],,
,,,45,,35,46,35,
46,35,,,4-1[8:1]/8-5[8:1],,,,
,45,,46,35,4/6h[8:3],,,
4,,{32}1,2,3,4,5,6,7,8,{16}1,3,5,7,{12}1,4,7,
{4}2,45,

{8}6-3[8:1],6,2-7[8:1],2,6-3[8:1],6,2-7[8:1],2,
6,6,36,36,{32}1b,2,3,4,5,6,7,8,1,2,3,4,5,6,7,8,
{8}1,1,1,5,46,5,5,4,
3,5,6,4,{32}8b,7,6,5,4,3,2,1,8,7,6,5,4,3,2,1,
8,7,6,5,4,3,2,1,8,7,6,5,4,3,2,1,8,,,,,,,,1b,2,3,4,5,6,7,8,
1,2,3,4,5,,,,5,,,,,,,,8b,7,6,5,,,,,1b,2,3,4,,,,,
8b,7,6,5,4,3,2,1,8,7,6,5,4,,,,4,,,,,,,,8b,7,6,5,4,3,2,1,
8,7,6,5,4,3,2,1,8h[64:1],7h[64:1],6h[64:1],5h[64:1],4h[64:1],3h[64:1],2h[64:1],1h[64:1],8h[64:1],7h[64:1],6h[64:1],5h[64:1],4h[64:1],3h[64:1],2-6[16:29],1h[64:1],{16}8,6,4,2,
{2}8,,,{8},,2b,6b,

{16}3,4,3,2,3,4,3,2,3,4,3,2,{8}3,,
4b/8b,4b,4b/8b,4b,4b/8b,4b,4b/8b,,
{16}6,5,6,7,6,5,6,7,6,5,6,7,6,,,,
4,5,4,,35,,46,,5,4,,8,{8}18,,
7h[16:1],6h[16:1],5h[16:1],4h[16:1],3h[16:1],2h[16:1],1-3[8:1]/8-6[8:1],,
1-5[8:1]/8-4[8:1],,1-3[8:1]/8-6[8:1],,1-5[8:1]/8-4[8:1],,18,,
4h[8:1]/5,5,3/6h[8:1],3,2h[8:1]/7,7,1/8h[8:1],1,
{16}2h[8:1]/4h[8:1],,,3h[8:1]/5h[8:1],,,4h[8:1]/6h[8:1],,,5h[8:1]/7h[8:1],,,{8}68,,
2-4[8:1]/5,5,6b,6,4/7-5[8:1],4,3b,3,
2-4[8:1]/5,5,6b,6,4/7-5[8:1],3,2b-4[8:1],2,
8b-6[8:1],8,1b-3[8:1],1,7b-5[8:1],7,1b,1,
{16}1,2,3,4,1,2,3,4,1,2,3,4,{32}1h[64:1],2h[64:1],3h[64:1],4h[64:1],1h[64:1],2h[64:1],3h[64:1],4h[64:1],
{1}1bv8[8:1],,E

Re:MASTER


名前:
コメント:

タグ:

+ タグ編集
  • タグ:
最終更新:2026年10月04日 09:35