アットウィキロゴ

雷切-RAIKIRI-

アーティスト kanone

BPM EASY BASIC ADVANCED EXPERT MASTER Re:MASTER
165 4 7 9+ 12+ 14+ 14+

EXPERT MASTER Re:MASTER
譜面制作者 サファ太 某S氏 Phoenix

EASY


BASIC

(165){1},,
{4}2,2,1/2,,
{4}7,7,7/8,,
{4}2,2,1/2,,
{4}7,7,7/8,,
{1}1h[2:1]/2h[2:1],
{4}7,7,7/8,,
{4}1,1,8,8,
{4}1,8,2b/7b,,
{1}1-5[4:3],,
{4}6,6,5,5,
{4}4,4,3/4,,
{2}3/4,5/6,
{4}3,4,5,6,
{2}5b/6b,3b/4b,
{4}5,5,4,4b,
{4}5,5,5,,
{4}7,7,7,,
{4}1,1,1,,
{4}3,3,3/4,,
{4}4,4,4,,
{4}2,2,2,,
{4}8,8,8,,
{4}6,6,5/6,,
{4}5,5,5/6,5/6,
{4}7,7,7/8,7/8,
{4}1,1,1/2,1/2,
{4}3,3,3/4,,
{4}4,4,3/4,3/4,
{4}2,2,1/2,1/2,
{4}8,8,7/8,7/8,
{1}6h[2:1],
{1}6-1[4:3],
{4},,3,3,
{1}3-8[4:3],
{4},,6,6,
{1}6-1[4:3],
{4},,3,3,
{1}3-8[4:3],
{2},6b,
{1}6-3[4:3],
{4},,2,2,
{1}2-7[4:3],
{4},,8,8,
{1}8-4[4:3],
{4},,1,1,
{1}1h[2:7],,
{1}8h[2:3],,
{1}2b/7b,
{2}1,1,
{4}2,2,2,,
{2}3,3,
{2}4/5,4b/5b,
{8}6,6,6,,5/7,,,,
{8}4,4,4,,3/5,,,,
{8}2,2,2,,1/3,,,,
{1}8b,
{4}1,1,2,2,
{4}3,3,4/5,4/5,
{4}5,5,6,6,
{4}7,7,1b/8b,,
{4}8,8,7,7,
{4}6,6,4/5,4/5,
{4}4,4,3,3,
{1}1b/2b,
{8}2,2,2,,3,3,3,,
{8}4,4,4,,3/5,,,,
{8}6,6,6,,7,7,7,,
{8}8,8,8,,1/7,,,,
{8}7,7,7,,6,6,6,,
{8}5,5,5,,4/6,,,,
{8}3,3,3,,2,2,2,,
{8}1,1,1,,2/8,,,,
{1}1h[2:1]/2h[2:1],
{1}7h[2:1]/8h[2:1],
{8}2,2,2,,1,1,1,,
{8}8,8,8,,1/7,,,,
{1}7h[2:1]/8h[2:1],
{1}1h[2:1]/2h[2:1],
{8}7,7,7,,8,8,8,,
{8}1,1,1,,2/8,,,,
{1}1-6[4:3]/2-5[4:3],,
{1}7-4[4:3]/8-3[4:3],,
{1}1^4[4:3]/8^5[4:3],,
E

ADVANCED

(165){1},,
{4}3,4,4/5,4/5,
{4}6,5,4/5,3s7[1:1],{1},
{4},,1/8,1/8,
{4}7,6,4/5,3/6,
{4}2,3,4/5,3/6,
{8}4,4,4,,5,5,{4}5s1[4:3],{1},
{4}2,3/4,7,5/6,
{4}2,3/4,4/5,5/6,
{8}7,7,7,,1,1,1,,
{4}1/8,1/8,2h[16:3]/7h[16:3],,
{1}3-8[8:3]/4-7[8:3],
{1}5-2[8:3]/6-1[8:3],
{2}3h[4:1]/4h[4:1],5h[4:1]/7h[4:1],
{4}1/8,2/7,3/6,4b/5b,
{4}4,3,2/4,5,
{4}6,5/7,4,4/5,
{4}3h[4:1],4,6h[4:1],5p1[2:1],
{4},,,2/8,
{4}3h[4:1],4,3,2/4,
{4}5,6,5/7,4,
{2}3h[4:1]/5h[4:1],4h[4:1]/6h[4:1],
{8}3,3,4,,6,6,5,,
{8}3/4,3/4,3/4,,2/5,,1,,
{4}8,7,5/6,5/6,
{4}7h[4:1],5,2h[4:1],4,
{4}5/6,4/7,3/8,,
{8}5/6,5/6,5/6,,4/7,,8,,
{4}1,2,3/4,3/4,
{2}5h[4:1]/6h[4:1],3h[4:1]/4h[4:1],
{4}2/5,3/6,4/7,8b,
{4}5h[4:1]/7h[4:1],,5/7,6,
{4}4h[4:1]/5h[4:1],,4/5,3>7[4:3],{1},
{4}6,6,5/7,,
{4}2h[4:1]/4h[4:1],,2/4,3,
{4}4h[4:1]/5h[4:1],,4/5,6<2[4:3],{1},
{4}3,3,2b/4b,,
{2}2h[4:1]/4h[4:1],3h[4:1]/5h[4:1],
{4}4h[4:1]/6h[4:1],,4/6,4/6,
{2}7-2[4:1],3-6[4:1],
{4}7,7,6b/8b,,
{4}3h[4:1],4,4/5,5/7,
{4}6h[4:1],5,4/5,2/4,
{1}1pp5[1:1],
{2},6,
{1}5pp1[1:1],
{2},2,
{1}4b/5b,
{2}3h[2:1],4h[2:1],
{4}5,5,5/6,,
{2}5h[2:1],3h[1:1],
{4}4h[2:1],,,2b/5b,
{4}2h[4:1],3h[4:1],4h[4:1],5h[4:1],
{4}4,4/5,3/6,,
{4}6h[4:1],5h[4:1],4h[4:1],3h[4:1],
{4}4,3/4,2/5,,
{4}3h[4:1],4,5h[4:1],4,
{4}2h[4:1],4,3,4/5,
{4}6h[4:1],5,4h[4:1],5,
{4}7h[4:1],5,3h[4:1]/6h[4:1],,
{8}4,4,4,,6,6,6,,
{8}2,2,2,,8,8,{4}8w4[8:5],{1},
{4}3h[2:1]/5h[2:1],,,2b/6b,
{8}3,3,2/4,,1/8,,2/7,,
{8}6,6,5/7,,1/8,,2/7,,
{8}6,6,5,,3,3,4-1[8:3]*-7[8:3],,
{4},,,8,
{8}6,6,5/6,,4/7,,1/8,,
{8}2,2,1/2,,3/8,,{4}2V41[4:3]/7V58[4:3],{1},
{4}1/2,7/8,1b/6b,,
{2}2-7[4:1],6-3[4:1],
{4}2,2,1/8,1/8,
{8}2,2,8,8,1,1,8-3[8:3]*-5[8:3],,
{4},,,4/6,
{8}7,7,8,8,6,6,5/7,,
{8}3,3,4,4,2,2,1/3,,
{8}2,3,4,5,6,7,8,1,
{4}2h[2:1]/7h[2:1],,,8b,
{2}2h[2:1],1h[2:1],
{4}2,3,4/7,,
{2}6h[2:1],5h[2:1],
{1}4>6[4:11],,,,
E

EXPERT

(165)
{4}1s5[2:3],,,,,,,,
{8}6,6,4,4,5,5,3,4,
6,6,5,5,7,7,5/7s3[2:1],,
{4},,,24,
{8}3,3,4,2,6,6,57,,
8,8,2,2,7,7,1,8,
3,3,5,5,1,1,2h[4:1]/8,,
{16}3h[16:3],,,4h[16:3],,,5h[16:3],,,6,,,47,,,,
{8}27,27,36,36,45,45,2b/7b,,
{16}3h[16:3],,,4,,,25,,6h[16:3],,,5,,,47,,
3h[16:3],,,4,,,25,,2-5[8:1]/5-8[8:1],,,,,,,,
{8}7,5,6,6,2,4,3,3,
{16}46,,6,,35,,3,,2h[8:1]/6h[8:1],,,26,,,,,
{4}4h[8:1]/6h[8:1],4h[8:1]/6h[8:1],3h[8:1]/5h[8:1],3h[8:1]/5h[8:1],
{12}4,4,4,5,5,5,3,3,3,2b/4b,,,
{2}5-1[8:1]/7,2/8-4[8:1],
{16}2h[16:3],,,4h[16:3],,,5h[16:3],,,7h[16:3],,,8b,,,,
{8}6,6,4,4,6,6,2,2,
6,6,2,3,5,46,46,,
3,3,8,7,3,24,2-5[8:1]/4,,
8-4[8:1],,2,,2,13,1-4[8:1]*-6[8:1]/3,,
,,3b/7b,,2,2,5,5,
2,2,8,7,3,25,25,,
7,7,4,3,8,17,1/7pp2[2:1],,
{4},,,34,
{8}1b/8b,2b/7b,3b/6b,,4,4,8,8,
2,2,8,7,3/6^1[8:1],,4,,
3,3,7,6,2/5^8[8:1],,1pp4[2:1],,
{4},,,56,
{8}4-8[8:1],,5b,,7,7,4,4,
6,6,1,2,3-7[8:1]/5,,6<3[2:1],,
{4}5h[2:1],,,27,
{16}3b,4,3,4,,,6b,5,6,5,,,47,,,,
{4}4^1[4:1],8,7^4[4:1],3,
2h[4:1],1,34,25,
{2}7-4[8:1]/8h[4:1],1-4[8:1]/8h[4:1],
{8}6,5,47,,3,4,25,,
{4}5^8[4:1],1,2^5[4:1],6,
7h[4:1],8,1^3[8:1]/6^4[8:1],,
{16}3,4,3,4,3,4,3,,7,5,7,5,7,5,7,,
2,1,2,1,2,1,2,,46,,,,8b,,,,
{4}3^8[4:1],7,6^3[4:1],2,
1h[4:1],8,27,45,
{2}5h[4:1]/6-1[8:1],4-1[8:1]/5h[4:1],
{16}8,1,7,2,8,1,7,2,8b,,,,36,,,,
2h[8:1]/4h[8:1],,,3h[8:1]/5h[8:1],,,4h[8:1]/6h[8:1],,,5h[8:1]/7h[8:1],,,57,,,,
{4}6-3[8:1]/7-2[8:1],,4-8[8:1]/5,7qq3[1:1],
{1}1h[2:3],
{4},,2,3pp7[1:1],
{1}1h[2:3],
{2},8,
{1}4b/5b,
{2}4/6p5[4:3],3,2qq5[4:3],7,8qq5[4:3],3,
{4}1p5[4:1]*q5[4:1],,,5b,
{8}6,6,5/7-3[8:1],,1,,24,,
3,3,2-6[8:1]/4,,8,,57,,
6,6,5,7,4,4,5,3h[4:1],
{16},,4,,2h[16:3]/5,,,1,,,38,,3b/8b,,,,
{8}2,2,4,4,5,5,7,7,
3,3,1,1,8,8,6,6,
4,4,5,3,6,6,5,7,
2,2,8z4[8:3],1,,,,,
2,2,4,5,7,7,5,4,
2,2,13,13,4v1[8:1]/8v5[8:1],48,,,
{16}2,,2,,7,,7,,1,8,1,8,1,8,1,8,
1b,,,24,,,8b,,,57,,,4b/5b,,,,
{8}2-5[8:1],2,6-1[8:1],6,4,3,38,,
7-4[8:1],7,3-8[8:1],3,5,6,17,,
35,4,3,1,46,5,6,1,
{16}18,,27,,3-7[8:1]/6-2[8:1],36,,,,,,,45,,,,
{8}6-1[8:1],6,2-5[8:1],2,8,7,46,,
3-8[8:1],3,7-4[8:1],7,1,2,35,,
1,2,38,7,1v4[8:1]/6^8[8:1],,,,
{16}18,,27,,3-8[8:1]/6-1[8:1],36,,,,,,,4b/5b,,,,
{8}37,7^4[8:1],8,1,13,36,47,,
26,2^5[8:1],1,8,7,36,25,,
{2}3^1[8:1]/4-8[8:1],5-1[8:1]/6^8[8:1],
{16}2b/7b,,3b/6b,,4b-1[8:1]/5b-8[8:1],4b/5b,,,,,,,45,,,,
{8}37,3^8[8:1],4,5,6,27,3/8[4:1],,
1,2,38,7,5b/6b,3b/4b,2b/5b,,
{16}6,,57,,3,,24,,1,8,1,8,1,8,1,,
2b/7b,,3b/6b,,4b-8[8:1]/5b-1[8:1],4b/5b,,,,,,,27,,,,
{1}8qq5[4:3],2pp5[4:3],6pp5[4:3],
{6}3h[6:1],4h[6:1],5h[6:1],6h[6:1],7h[6:1],8z4[12:23],
{1}1b,,,,
E

MASTER

(165)
{4}
1s5[8:11]/5s1[8:11],,,,,,,,
{16}
17,,8,,6,5,,28,,,78,,16,,25,,
38,,1,,3,4,,56,,,47,,38,,12,,
28,,1,,3,4,,17,,,12,,38,,47,,
16,,8,,6,5,,34,,,25,,16,,78,,
16,16,16,,38,38,,16,,,78,,16,,25,,
38,,1,,3,4,,56,,,47,,38,,12,,
28,28,,17,17,,46,46,,35,35,,4,5,4,5,
3,6,3,6,2,7,2,7,4/8-4[8:1],37,26,15,8b,,,,

8/1-5[8:1],,,8,,,8,,8/7-4[8:1],,,8,,,8,,8/3-7[8:1],,,8,,,8,,8/5-1[8:1],,,8,,,8,,
4h[4:1],,8,,6h[4:1],,1,,5h[4:1],,8,,3h[4:1],,1,,4h[4:1],,7,,5h[8:1],,2,,1,8,1,8,,,,,
78,,78,,12,,12,,46,,3,24,,6,57,,
{12}
48,48,48,37,37,37,26,26,26,{32}2-5[8:1]/6-1[8:1],3,4,5,6,7,8,1,
{8}
2b/6b,,3-8[8:1]/7-4[8:1],,3b/7b,,
{32}
1,2,3,4,5,6,7,8,{16}15,15,,34,34,,84,84,,56,56,,1b,,,,

{16}
3/6,,5,4,5,,4,5,4,,5,4,5,,4,5,
3,,5,4,6,,4,5,3,,5,4,6,,3,4,
2,,6,5,7,,3,4,2,,6,5,7,,3,5,
4,6,5,6,3,4,3,7,6,7,2,3,2,7,8,7,1-5[8:1],,1,8,1b,,,,
3/6,,6,5,7,,3,4,2,,6,5,7,,3,4,
2,,6,5,7,,2,4,1,,7,5,8,,2,5,
1,,7,4,8,,1,5,1,2,3,4,5,6,7,8,15,4,3,2,1,8,7,6,4-1[8:1]/5-8[8:1],,4/5,,4b/5b,,,,

{8}
7/2-5[8:1],2,7-4[8:1],7,1-5[8:1],1,8-4[8:1],8,
3>8[8:1],3,5-1[8:1],5,4-8[8:1],4,6<1[8:1],6,
3-8[8:1],3,4-7[8:1],4,1-5[8:1],1,8,8,
{16}8,7,6,5,4,3,2,1,7-4[8:1]/8-3[8:1],,7/8,,7b/8b,,,,

{8}
1/2-5[8:1],2,6-1[8:1],6,3-7[8:1],3,8-4[8:1],8,5-1[8:1],5,6,6,
{32}
1,2,3,4,5,6,7,8,{16}5,5,5,5,{32}8,7,6,5,4,3,2,1,{16}5,5,5,5,{16}1b,1b,1b,1b,,,8b,8b,8b,8b,,,{24}18,27,36,45,,,

{8}
7/2>5[8:1],,6,6<1[8:1],,4,4,{16}3,4,{8}3>8[8:1],,7,7<4[8:1],,1,1,,
{16}
1/6h[2:1],,1,2,3,,5,,2h[2:1],,7,6,5,,3,,8h[2:1],,2,3,4,,6,,1,,27,36,45,,18,,
{8}
2/7<4[8:1],,3,3>8[8:1],,5,5,{16}6,5,{8}6<1[8:1],,2,2>5[8:1],,8,8,,
{16}
1/7h[4:1],2,3,4,5,6,7,8,1/7h[4:1],2,3,4,5,6,7,8,1/7h[4:1],2,3,4,5,6,7,8,1,8,1,8,27,,,,

4,,4,,53,,4,5,,5,,5,64,,5,4,
5,,5,,64,,5,4,,4,,4,35,,4,,

35,,2,1,2,,83,,56,,7,8,7,,61,,1,8,2,7,1,8,2,7,1b,,,,
4,5,4,5,2b,5,4,7b,4,5,4,7b,4,5,4,5,
3,6,3,6,2b,8,4,6,5,7,3,1,3,5,1,7,8,6,2,4,

{4}
3>6[4:5],,5,,,,5,,8<1[4:5],,4,,,,4,,4b/5b,,,45,

{16}
36,,,4,5,,4,,25,,{24}2,3,4,5,,,{8}8,37,{24}7,6,5,4,,,{8}1,26,,{16}4,5,3,6,
2,,,2,1,,3,,7,,,7,8,,6,,18,,,,,,{24}1,8,1,8w4[8:1],,,,,,8b,,,,,,
{16}
1/2-5[8:1],,3,4,2,,8,,8/7-4[8:1],,6,5,7,,1,,
1/2-5[8:1],,3,4,2,,8,,8-4[8:1],1,7,2,8,,1,,
5/3-8[8:1],,2,1,3,,5,,4/6-1[8:1],,7,8,6,,4,,,,
12,,35,35,,78,,,46,,37,,82,,
{16}
6/1-5[8:1],,5-8[8:1],,6,6,,7<2[16:3],,,2,,1,,8,,
8-4[8:1],,4-1[8:1],,3,3,,2>7[16:3],,,7,,8,,1,,
1-5[8:1],,5-8[8:1],,6,6,,7<2[16:3],,,2,,1,,8,,
8-4[8:1],,4-8[8:1],,3,3,,1,1b,,,1b,,,1b,,

2,1,3,8,4>1[32:3],7,5,6,,,7,8,6,1,5,2,34,,78,,56,56,,12,,{32}1-5[32:3]/8-4[32:3],27,36,45,,,1b/8b,,,,,,,,
{16}
3,6,3,6,2,7,2,7,1,8,1,8,{32}1,2,3,4,5,6,7,8,{16}15,15,,64,64,,84,84,,35,35,,1b,,,,

{16}2>5[16:3],1,2,,25,6,7,8h[16:3],,,2,1,3,8,4,7,56,,47,,4,5<8[8:1],,25,,15,2,3,{24}4/1-5[8:1],2,3,4,5,6,
{16}71,,8,,4,5,,64,,37,26,15,{24}48,7,6,5,4,3,
{16}26,,48,,15,15,,2/8-4[8:1],,7,2,8,1b,,,,4-1[8:1]/5-8[8:1],,3,6,4b/5b,,,,

{16}27,,7,8,6,1,5,2,34,,25,,5,4>1[8:1],,47,,48,7,6,{24}5/8-4[8:1],7,6,5,4,3,
{16}28,,1,1,27,,1,8,2,7,3,6,{24}4,5,4,5,4,5,{16}46,,35,,48,48,,7/1-5[8:1],,,,,8b,,,,

{8}
8/1<6[8:1],2,13,4>1[8:1],5,46,7,{16}8,1,
{8}
8>3[8:1],7,68,5<8[8:1],4,53,2,1,

{16}
15,2,35,4,15,6,17,8,15,2,35,4,15,6,17,8,
15,,37,,25,25,,4/8<5[32:3],,18,2,3,4b,,,,
{16}
2,1,3,8,3,4,2,5,8,7,1,6,5,6,4,7,
12,,83,,2,8,1,,8w4[8:1],,7,1,8,,,,

1,8,3,6,2,7,4,5,{32}1,2,3,4,5,6,7,8,15,4,3,2,1,8,7,6,
{16}
15,,48,,2-7[16:1]/6-3[16:1],37,,26,,,,,1b,,,,

{16}
3/4-8[2:1],,,4,3,,3,,3,,3,2,1,,7,,
7/8-4[2:1],,7,6,5,,3,,2,,1,,8,,7,,
6/5-1[2:1],,,5,6,,6,,6,,6,7,8,,2,,
{12}
84,,73,,26,,15,,84,,
{48}
73,6,5,4,3,2,1,8,
{1}
7<2[4:7]/4z8[4:7],,,,
E

Re:MASTER

(165)
{4}
1s5[8:13]/5s1[4:3],,,,,,7-3[8:1],,
{16}
47,,36,,25,25,,4/1h[16:7],,,8,,7,,6,,
25,,36,,47,47,,5/8h[16:7],,,3,,2,,1,,
27,,6,5,6,5,6<8[8:1],5,6>2[8:1],,,,,,,,
7,8,7,8,7-5[8:1],8,7-1[8:1],8,7-3[8:1],,,,,,,,
2,1,2,,83,83,,6/2pp4[16:3],,,1,,8,,7,,
6,5,6,,47,47,,2/6pp8[16:3],,,5,,4,,3,,
2,25,,7,74,,1,15,,8,84,,1,8,1,8,3pp5[8:1]/7pp1[8:1],,,,,,,,4/8-4[8:1],37,26,15,,,,,
3/7-4[8:1],,,5,7,,3,,6/2-5[8:1],,,4,2,,6,,3/8-4[8:1],,,5,8,,3,,6/1-5[8:1],,,4,1,,6,,
1/5<4[8:9],,4,,3,3,,2,,,1,,2,,3,,8,,7,,6,,5,,3b/6b,,,3b/6b,,,,,
{8}
4-2[8:1],4-7[8:1],4-8[8:1],4-6[8:1],4-1[8:1],4-8[8:1],4,4,{12}1,1,1,1,1,1,
{32}
15,8,7,6,5,4,3,2,{4}1-5[32:3]/5<8[32:3],1b/5b,8-4[32:3]/4>1[32:3],8b/4b,2b/6b,
{16}
3/7h[4:1],3,,1,1s5[4:1],,4,4,,6-2[16:1],6,,6b,,,,
{16}
45,,3,4,3,,6,5,6,,2,3,2,,7,6,
7h[8:1],,8,7,1,7,2,7,3,6,4,5,3,6,4,5,
36,,7,8,7,,2,1,2,,6,5,6,,3>8[8:1],4,
3,,{24}7,6,5,4,,,{16},46,,35,,46,7,2,8,1,2-5[8:1]/7-4[8:1],,,,2b/7b,,,,
45,,7,5,7,,2,4,2h[8:1],,1,2,8,2,7,2,
6,3,5,4,6,3,5,4,
63,,2,1,2,,7,8,7,,3,4,3,,6,5,
8,1,8,1,{24}7,6,5,1,2,3,{16}5,4,5,4,{24}6,7,8,4,3,2,
{8}
1-5[8:1],28,1b,,
{16}
45,,3,4,2,,6,5,7h[8:1],,8,7,1,7,2,7,
3,3,5,5,4,4,6,6,3,5,4,5,
36,,7,8,6,,2,1,3,,6<1[8:1],5,7,,{24}2,3,4,5,,,
{16}
,35,,46,,35,2,7,1,8,
{8}
2-5[8:1]/7-4[8:1],,2b/7b,,
{16}
36,,6,5,7,,3,4,2h[8:1],,1,2,8,2,7,2,
6,6,4,4,5,5,3,3,
{32}
7,6,5,,{16}3,{32}7,6,5,,{16}3,3,,
{32}
2,3,4,,{16}6,{32}2,3,4,,{16}6,6,,
{16}45,53,52,51,,,45,46,47,48,,,{32}1b,28,37,46,5,,,,
{8}
3/6h[8:2],3,3,3/7h[8:3],3,3,3,{16}38,7,
{8}
3/6h[8:2],3,3,{16}35,6,{8}3/7h[8:1],3,3/6h[8:1],3,
{16}
4/5h[4:1],,4,3,2,,2,,1/8h[4:1],,1,2,3,,3,,
5/4h[4:1],,5,6,7,,7,,18,,{24}18,27,36,45,,,,,,
{8}
6/3h[8:2],6,6,6/4h[8:3],6,6,6,{16}63,2,
{8}
6/1h[8:2],6,6,{16}62,3,{8}6/4h[8:1],6,6/3h[8:1],6,
{16}
1/2h[16:7],8,7,6,5,4,3,,1h[16:7],3,4,5,6,7,8,,2h[16:7],3,4,5,6,7,8,1,{24}2,3,4,5,6,7,4b/8b,,,,,,
{16}
5,,5,,36,,5,4,,4,,4,36,,5,4,
5,,,4,36,,5,5,,4,,5,36,4,5,,
5/4h[4:1],,5,6,7,,7,,8/1h[4:1],,8,7,6,,6,,4/5h[4:1],,4,3,2,,2,,1-4[8:1]/8-5[8:1],,,,,,,,
{32}
4,5,4,,{16}6,{32}4,5,4,,{16}6,3,3h[8:1],,5,3,3,{32}5,4,5,,{16}3,,
{16}
84,,{32}7,6,5,,2,3,4,,{16}8h[8:1],,{32}2,3,4,,7,6,5,,3,4,3,,6,5,6,,
{4}
1s5[4:5],,5,,,,1,,5s1[4:5],,1,,,,5,,{64},4b,,,,,,,,,,,,,,,{4},,5,
3/8<3[4:3],,2,,1>6[4:3],,8,,7<2[4:3],,1,,{8}1h[4:1],,,{24}1,1,1,1w5[8:1],,,,,,1b,,,,,,
{16}
56,,6,,47,,6,5,,5,,5,47,,6,6,
5,,5,,47,,5,6,,6,5,,47,,56,,
34,,3,,25,,3,4,,4,,4,25,3,4,3,,,
12,,34,34,,56,,,48,,37,,26,,
{16}
5/1-3[8:1],,6/3V51[4:1],,7,7,,8,,7,7,,6,,5,,
4/8-6[8:1],,3/6V48[4:1],,2,2,,1,,2,2,,3,,4,,
5/1-3[8:1],,6/3V51[4:1],,7,7,,8,,{32}8,7,{16}6,,6,,5,,
4/8-6[8:1],,2/6-4[8:1],,1,1,,2,2b,,,8b/6b,,,1b/3b,,
{16}
45,,45,,6,4,5,3h[16:3],,,4,3,5,4,6,5,7,7,4,8,2,2,5,1,{8}27,36,4h[8:1]/5h[8:1],,
{32}
1,2,3,4,1,2,3,4,8,7,6,5,8,7,6,5,2,3,4,5,6,7,8,1,2,3,4,5,6,7,8,1,
{16}
6b/2h[4:1],6,,8,8z4[4:1],,5,5,,3-7[16:1],3,,3b,,,,
{16}
4,5,3,3,6,5,7,7h[16:3],,,8,7,1,7,2,7,{8}3/6-1[8:1],5,6/3-8[8:1],4,
{16}
37,6,5,4,{32}1,2,3,4,5,6,7,8,
{16}
15,,37,,6,6,2,2,{32}8,1,8,,{16}2,2,{32}5,4,5,,{16}3,,
{16}
25,,47,,25,25,,3/8-4[8:1],,7,1,8,2b,,,,{8}5s1[8:1]/4z8[8:1],36,4b/5b,,
{16}
2,1,2,8,2,7,2,6,{8}5/3-8[8:1],4,3/6-1[8:1],5,
{16}
26,3,4,5,{32}8,7,6,5,4,3,2,1,
{16}
84,,26,,3,3,7,7,{32}1,8,1,,{16}7,7,{32}4,5,4,,{16}6,,
7/1s5[4:1],,2,,6-2[16:1],6,,6,,,,,3b/7b,,,,
{32}
4,5,4,,{16}6,3,6,2,6,1,{32}5,4,5,,{16}3,6,3,7,3,8,
{32}
2,1,2,,{16}8,8,{32}4,5,4,,{16}6,6,{32}1-5[8:1],2,3,,7-3[8:1],6,5,,{16}1,,7,,
{16}
4h[8:1],,6,8,6,1,6,2,{32}5,4,5,,{16}3,1,3,8,3,7,
{16}
74,,25,,37,37,,6/1-5[8:1],,2,8,1,7b,,,,
{32}
5,4,5,,{16}3,6,3,7,3,8,{32}4,5,4,,{16}6,3,6,2,6,1,
{32}
7,8,7,,{16}1,1,{32}5,4,5,,{16}3,3,{32}8w4[16:1],7,6,,4,3,2,,{16}8b,,,,
{8}
46,35,47,25,{16}3,6,2,7,{32}1,8,1,8,1,8,1,,
{16}
2b/7b,,4b/5b,,3b/8b,3b/8b,,5b/1bs5[8:1],,,,,8,,,,
{16}
18,,,8,1,,1,,2,,{24}3,4,3,4,,,{8}5,7,{24}6,5,6,5,,,{8}4,3,2,1,2,
{16}
3,,,3,4,,7,,6,,{24}5,4,5,4,,,{8}3,
{12}
4h[12:1],,5h[12:1],,4h[12:1]/6h[12:1],,3h[12:1]/7h[12:1],,2h[12:1]/8h[12:1],,{24}1,28,37,46,
{1}
5bs1[4:7]*s1[4:7],,,,
E

  • PVが鳥居のとこの24部の4連のあと扇形スライドが違ってました -- 名無しさん (2019-05-31 22:21:22)
  • Re:master追加しました。 -- 名無しさん (2019-07-02 13:17:46)
  • EXPERT追加。 -- 嵐雅 (2020-08-19 20:06:05)
  • EXPERTのHOLDの長さを直しましたー。 -- 嵐雅 (2021-01-11 17:42:29)
  • MASTERとRe:MASTERのミスがいくつか見つかったので修正しました。 -- 嵐雅 (2022-01-10 11:37:52)
  • correction to ReM: 5/1-3[8:1],,6/3V51[8:1],, -> 5/1-3[8:1],,6/3V51[4:1],, ; 5bs1[4:7]/5s1[4:7],,,, -> 5bs1[4:7]*s1[4:7],,,, -- cubruce1103 (2023-07-09 00:14:13)
  • MASTERの{32}18,27,36,45,,,,,→{24}18,27,36,45,,,の修正、スライドの速さを修正しました。 -- けもがみ (2026-01-10 17:54:21)
  • Re:MASTER譜面の配置ミス、SLIDEの速さの修正を行いました。 -- けもがみ (2026-01-28 21:24:31)
名前:
コメント:

タグ:

+ タグ編集
  • タグ:
最終更新:2026年10月04日 21:06