EASY
BASIC
ADVANCED
EXPERT
(180){8}4h[8:7]/5h[4:3],,,,,,,5h[8:9],{1}4h[8:7],{8}3h[4:3],{4}4h[4:3],,,{8}3h[8:9],{1}4h[8:7],{8}6h[4:3],{4}5h[4:3],,,{8}6h[8:9],{1}5h[8:7],{4}4q1[4:3],{2},{4}8q5[4:3],{1},{8}5h[8:3]/6h[4:3],,,,,5h[2:1],,,6h[2:1],,,5h[2:1],,,{4}6h[8:5],{8}3h[4:3],,,,,4h[2:1],,,3h[2:1],,,4h[8:3],,,{4}3,5/6h[8:3],5,5/3h[8:3],5,5/7h[8:3],5,5/3h[8:3],5<4[4:3],{1},{2}1>4[8:1]/8<5[8:1],
{4}3/6,1b/8b,4/5,{8}3h[4:1]/7h[2:1],,,3,3h[8:3],7h[4:1],,,{4}1h[1:1]/5h[8:11],,,{8},,,1,{4}1h[4:1],{8}6,7,{1}6-4[8:1]/8-2[8:1],{8}4/5,6h[8:3],2h[2:1],,,6,6h[8:3],2h[4:1],,,{1}4h[4:3]/8h[8:9],{4}5h[8:3],6h[8:3],{2}3-7[8:1],{4}6b/8b,2b/4b,3b/7b,{8}4/5,3h[8:3],7h[2:1],,,3,3h[8:3],7h[4:1],,,{4}1h[1:1]/5h[8:11],,,{8},,,1,{4}1h[4:1],{8}5,6,{1}6-4[8:1]/7-1[8:1],{4}4h[8:3]/5,6h[8:3],2h[8:3],8h[8:3],{1}1-4[8:1]*-6[8:1],{8}6,6,1,1,8,8,3,3,{2}2-5[8:1]/4-7[8:1],{4}1/8,2b/7b,{8}3,3,4,{2}2-5[8:1]/5,7-3[8:1]*-5[8:1],{8}4,,2/5,{4}2/5,{8}8,8,1,{2}2/7-4[8:1],2-4[8:1]*-6[8:1],{8}5,,3/7,{4}3/7,{8}1,1,2,{2}8/3-8[8:1],6-8[8:1]*-2[8:1],{8}1,,2/7,{4}2/7,{8}1,1>6[8:3],,{2}6,
{4}7h[8:1]/8h[8:1],1h[8:1]/6h[8:1],2h[8:1]/5h[8:1],{8}3b/4b,,,{2}3h[8:7]/6h[8:3],4h[8:3],2h[8:3]/6h[8:7],5h[8:3],3h[4:3]/7h[8:3],{8}4h[4:1],,,3h[8:11]/4z8[8:5],{1},{2}4h[4:3],5h[4:3],6h[4:3],5h[4:1],2h[4:1]/4h[4:3],5h[4:3],7h[4:3],6h[2:1],{1}8b>6[4:11]*p6[4:11],,,,{8}4h[8:7]/5h[4:3],,,,,,,5h[1:1],4h[4:3],,,,,,,3h[1:1],4h[4:3],,,,,,,5h[1:1],{1}4h[8:7],{8}5h[8:3]/6h[4:3],,,,,5h[2:1],,,6h[2:1],,,5h[2:1],,,{4}6h[8:5],{8}2h[4:3],,,,,4h[2:1],,,2h[2:1],,,4h[8:3],,,,,2,2,4,4,3,3,6,6,5,5,7,7,1,1h[8:3],8<1[4:3],8,{1},{2}4>1[8:1]/8<5[8:1],{4}3/7,1b/5b,
{8}2h[8:5]/4h[4:1],,,6h[4:3],,,2,2h[4:1],,,{2}4h[8:3]/8h[8:7],5h[4:3],{8}7h[4:1],,,{2}3h[4:1]/5h[2:1],{8}6h[8:1],5h[8:1],4h[8:1],3h[8:1],4h[8:3],{4}5h[4:1],{8},2h[8:3],6h[4:3],,,2,{1}2z6[4:3],{4}8>6[4:3],{1},{4}3h[2:1],{8}7h[2:1],,,{8}3,3h[2:1],7,7h[4:3],,,4,5h[4:3],,,8,1h[8:7],,,4,{2}3h[8:3],{8}5h[4:1]/7h[4:3],,,4,3h[8:5],,,8,{4}1h[4:1],5-2[8:1]*-8[8:1],,,{8}1/8,2h[2:1],6b,,,6h[8:5],2,2h[4:1],,,4>6[8:3],{4}8h[8:5],,,{8}8,8h[2:1],{2}4h[8:5],{4}1h[8:3],3h[8:3],5h[8:5],{8}1h[8:3],,,{4},3h[2:1]/7b,{8}2,2,{4}4h[2:1],{8}3,3,{4}5h[4:3],{8}4,4,{8}6h[8:3],,,{8}2h[2:1],{2}8h[8:3],{8}1h[4:1]/7h[4:1],,,{8}2/6,3/5,{4}4,{8}3b/7b,,,{4}8-4[4:5],1,7,2,6,3,5,3/6,{8}7,7,5,5,4,4,2,{2}2>5[8:1]/6<1[8:1],{4}2-6[8:1]/6,{8}8b,,,7,7,8,{2}1-5[8:1]*>4[8:1]/6,6-2[8:1]*<1[8:1],{8}3/4,,2/5,{4}2/5,{8}4,4,5,{2}3-7[8:1]*>8[8:1]/6,6-2[8:1]*>3[8:1],{8}1/8,,2/7,{4}2/7,{8}6,6,5,{2}4/7-3[8:1]*<4[8:1],2-6[8:1]*<7[8:1],{8}4/5,,2/6,{4}2V47[4:3]/6V83[4:3],{8},,,,,,,1b/5b,E
MASTER
(180)
{8}
2b/7b,,3,4,,4,5,4h[8:1],5,4,,6h[8:3],5h[4:1],,,,
46,,6,5,,4,5,4h[8:1],5,4,,4/3h[8:3],4h[4:1],,,,
35,,3,4,,4,5,4h[8:1],5,,6,5,,45,4/5h[2:1],,3h[4:1],,,,,,{96}4h[1024:1],3h[1024:1],,,,,{16},,,6,5,6,,5,4,5,,3,4,3,,3,,3,,
{8}
4/3h[4:1],,4,3h[4:1],,5,3h[4:1],,6,2h[4:1],,7V15[4:1],1,,,,
6h[4:1],,5,6h[4:1],,4,6h[4:1],,3,7h[4:1],,2V84[4:1],8,,,,
7/3h[8:3],7,6,6,1/5h[8:3],1,2,2,4/8h[8:3],4,3,3,5/2h[8:3],5,6,6,
3bV14[2:1]/7bV16[2:1],,,,,,,,2>5[8:1]/8<5[8:1],,,,{16}4,5,4,,{8}2b/7b,,
{8}
2-7[8:1]/6-3[8:1],,26,,1,2,3,6/3V51[4:1],6-8[8:1],,,,2,3,47,,
8-5[8:1],1,2,3,4-1[8:1],6,7,8,{32}8-4[8:1],7,6,5,4,,,,,,,,,,,,{8}6,5,47,,
5/1-5[8:1],,8,7,64,3,2,5/2V48[4:1],5-7[8:1],,,,1,8,2/7V51[4:1],,1,2,3V15[4:1],3,5,6,7,8,
{4}
8-6[8:1]/4-2[8:1],8-3[8:1]/4-7[8:1],8-4[8:1]/4-8[8:1],48,
{8}
2-5[8:1]/5-1[8:1],,25,,8,7,6,3/6V84[4:1],3-1[8:1],,,,5,6,47,,
1-5[8:1],8,7,6,5-1[8:1],6,7,8,{32}8-4[8:1],7,6,5,4,,,,,,,,,,,,{8}7,6,52,,
4/8-4[8:1],,1,2,35,6,7,8,4/1-7[8:1]*v4[8:1],,,,6,5,4/7V51[4:1],,1,2,3V15[4:1],3,5,6,7,8,
8<5[8:1]/4>1[8:1],,48,,26,26,4b/8b,,
{8}
7-5[8:1],2-8[8:1],7,2,,7-4[8:1]/2-8[8:1],8,,,7-3[8:1]/2-8[8:1],8,,,4,25,,
2-4[8:1],7-1[8:1],2,7,,2-5[8:1]/7-1[8:1],1,,,2-6[8:1]/7-1[8:1],1,,,5,37,,
7-5[8:1],2-8[8:1],7,2,,7-4[8:1]/2-8[8:1],84,,,7-3[8:1]/2-8[8:1],83,,,4,26,,
7>2[16:3],1>4[16:3],3<6[16:3],5<8[16:3],,,,1>5[8:1]*<5[8:1],,1w5[8:1],,1,,2b/8b,,,
{8}
8-4[8:1],4V68[4:1],8,2,2,3,47,,1-5[8:1],5V31[4:1],1,7,7,6,52,,
7-3[8:1],3V51[4:1],7,2,3,4,{24}48,37,26,51,,,{8},2V46[4:1],4,6V82[4:1],8-4[8:1],8,,,
3,4,5/2h[4:1],,{24}1,8,7h[24:7],,,,,,,8,1,2h[24:7],,,,,,,1,83,7h[24:4]/4,,,,8,16,25,,,,4b/8b,,,,,,
{8}
7-3[8:1],3V57[4:1],7,2,2,1,8/1-4[8:1],,1-6[8:1],8,1-5[8:1],2,1w5[8:1],,,,
{2}
3b>3[4:13]/7b<7[4:13],,,,,,,,
{8}
6h[16:3],,,6h[16:3],,,6h[8:1],,4h[16:3],,,4h[16:3],,,4h[8:1],,
2h[16:3],,,2h[16:3],,,2h[8:1],,4h[16:3],,,4h[16:3]/5h[16:3],,,4h[8:1],,
6h[4:1],,5,6h[4:1],,3,6h[4:1],,5,6h[4:1],,8-6[8:1],6-2[8:1]*-4[8:1],,,,
3h[4:1],,4,3h[4:1],,6,3h[4:1],,4,3h[4:1],,1V35[4:1],3-7[8:1],,,,
{8}
2/6h[8:1],2,5/1h[8:1],5,48,48,15,15,2/6h[8:1],2,7/3h[8:1],7,
{16}
48,7,6,5,4qq1[4:3]/8qq5[4:3],1,2,3,{4},,,,1-5[8:1]/5-1[8:1],5/1w5[8:1],,3b/7b,
{8}
6-4[8:1],4V68[4:1],6,1,2,2-6[8:1],,6/2>5[8:1],,{24}12,8,7,6,,,{8},18,18,2/7-5[8:1],,
7-3[8:1],2,7,2-6[8:1],6,2-8[8:1]*-4[8:1],,,,7/4h[8:2],6,5,4/5h[8:2],3,2>7[4:1],,7<2[32:5],,2,,1-5[8:1],8,17,,
{16}
46,3,2,1,78,6,5,4,1,2,3,4,5pp1[4:3]/1pp5[4:3],8,7,6,{4},,,,2-5[8:1]/7-4[8:1],7/2-8[8:1],{8}2-4[8:1],6-2[8:1],2,6,
{8}
1w5[8:1],,1b,,2v4[8:1]/8-4[8:1],,2v5[8:1]/8v5[8:1],,2-6[8:1]/8v6[8:1],,28,,
{16}
5,4,3,2,5-1[8:1],6,7,8,15,,,,6b-2[8:1]/2b,3,4,5,68,,,,8b/3b,7,6,5,4/1-5[8:1],,,,{8}5V38[16:5]/1V74[16:5],,,,,,{24}17,26,35,4,,,
{8}
1b/7bV51[4:1],,1-5[8:1],2,2V48[4:1],2,8-4[8:1],7,6,5,5w1[8:1],,,,7/3h[4:1],6,5h[4:1],2,1,
1-3[8:1]/5-7[8:1],,1-6[8:1]/5-2[8:1],,1-5[8:1]/5-1[8:1],,15,,3b/7b,,,
{8}
2-5[8:1]/6-1[8:1],,2b/6b,,8-4[8:1],4<7[8:1],8,3,3,5-1[8:1]/2>5[8:1],14,,,37,37,,
8-4[8:1],4-8[8:1],8b,1,2-6[8:1],6-2[8:1],2b,8,7,2v8[8:1]/6v4[8:1],15,,,2b/6b,,,{32}18,27,36,45,,,,,
{4}
7/2-8[8:1],2/6-2[8:1],6/4-6[8:1],4/8-4[8:1],8/1w5[8:1],1,37,
{8}
6/5h[8:1],7,1/8h[8:1],2,3/4h[8:1],2,1,1/7>1[8:1],,7/4w8[8:1],,4,,2b/6b,,,
{8}
5-8[8:1],2-5[8:1],5,2,,7-4[8:1]/4-8[8:1],58,74,,5/1-5[8:1],48,1/5V73[4:1],,4,4,,
4-1[8:1],7-4[8:1],4,7,,2-5[8:1]/5-1[8:1],41,25,,4-8[8:1]/8-4[8:1],15,4V26[4:1]/8V62[4:1],,,,,
8-5[8:1],3-8[8:1],8,3,,1-5[8:1]/6-1[8:1],58,16,,4-8[8:1]/8-4[8:1],15,48,,6pp3[8:7]/2h[1024:1],2pp7[8:6]/6h[1024:1],,,,,,,,,1b/5b,,,,,,,,,,,,,,,,E
Re:MASTER
(180)
{4}
7bqq4[4:5]/3h[8:7],,,,3h[4:3],,,8,
2pp5[4:5]/6h[8:7],,,,6h[4:3],,,1,
5>2[4:2]/7h[8:7],,,,4<7[4:2]/2h[8:8],,,,
7-3[8:3],,,1-5[8:7]/8,
{16}8,7,6,,2,3,4,,8,7,6,,,,,,
{8}
4/6h[4:1],,4,4/6h[4:1],,4,4/7h[4:1],,,4/7h[4:1],4,,
8,4,48,4,
5/3h[4:1],,5,5/3h[4:1],,5,5/2h[4:1],,,5/2h[4:1],5,,
1,5,15,5,
{4}46,1>4[4:1],4<7[4:1],7>2[4:1],
2>5[4:1],5<8[4:1],8>3[4:1],3<1[32:15],
6h[4:4],,
{32}
2,3,4,5,,7,8,1,
2z6[4:1],3,4,5,,7,8,1,
{4},,8s4[8:1]*z4[8:1],,
{8}
2-6[8:1]/6-2[8:1],,,,
37,1>6[4:1],28,1h[8:3],,,8,,6,5,47,,
25,{16}3,3,{8}4,1,56,8,34,8/1h[8:3],
{32}2,3,4,5,{8}6,8,,6,5,47,,
25,1,25,8,25,7,25,6,2>5[8:1]/5<8[8:1],,25,,3,4,25,,
7<4[8:1]/4,3,74,,7<4[8:1]/4,8,74,,
7<4[8:1]/4>1[8:1],,7/4-8[8:1],,1>4[8:1]/4<7[8:1],,14,,
8w4[8:1],,,,26,8<3[4:1],17,8h[8:3],,,1,,3,4,25,,
47,{16}6,6,{8}5,8,34,1,56,1/8h[8:3],
{32}7,6,5,4,{8}3,1,,3,4,25,,
7<4[8:1]/4,,7>2[8:1],3,7,,34,2>5[8:1],5>2[8:1],2<7[8:1],,,6,5,47,,
2-5[8:1]/5,1,25,6,4/7-4[8:1],8,47,3,2>5[8:1]/5<8[8:1],,25,,1w5[8:1],1,1b,,
37,2>5[8:1],1,2/8h[4:1],,1>4[8:1],8,1/7h[4:1],,
8>3[8:1],7,8/6h[4:1],,5,47,,
26,7<4[8:1],8,7/1h[4:1],,8<5[8:1],1,8/2h[4:1],,
1<6[8:1],2,1/3h[4:1],,4,25,,
47,8<5[8:1],1,8/2h[4:1],,1>4[8:1],8,1/7h[4:1],,
8-4[8:1],1,8/2h[4:1],,7,27,,
8-4[8:1],1-5[8:1],8,1,6,3-8[8:1]/7-4[8:1],,37,,
48,15,2-5[8:1]/6-1[8:1],,26,,,
8h[8:1],4,7h[8:1],3,6h[8:1],2,5h[8:1],1h[8:1],
4h[8:1],8,3h[8:1],7,2h[8:1],6,1h[8:1],5h[8:1],
8-4[8:1],4-8[8:1],,1,1>4[8:1],,{24}8,7,6,{8}5,,
8v5[8:1],1-3[8:1],8-6[8:1],1v4[8:1],8,1,,
2-4[8:1]/6-8[8:1],15,,,
{32}37,26,{8}1/5<8[16:3],,{16},{32}1,2,3,4>1[8:1],{4},
{32}8,7,6,5,{8},3-5[8:1]/7-1[8:1],15,,,
48,7,16,2,37,6,25,3,4>1[8:1]/8<5[8:1],,48,,
{32}1,2,3,4,5,6,7,8,
{4}1-4[8:1]/5q7[4:14],
5b/1bq3[4:13],,,,,,,,,,,,,,,,
{4}
7h[4:3]/5h[4:7],,,,4h[16:19],,,,
{16}2h[16:3],,,,,,3h[16:3]/5h[16:3],,,,,,{4}46,
{16}5h[16:3]/7h[16:3],,,,,,4h[16:3]/6h[16:3],,,,,,{4}35,
{8}2h[4:1]/4,,4,2h[4:1]/5,,5,2h[4:1]/6,,6,2h[4:1]/7,,7,4h[4:1]/5h[4:1],,,,
7h[4:1]/5,,5,7h[4:1],4,,7h[4:1]/4,,3,7h[4:1],3,,72,,
{24}4,5,4,5,4,5,
{8}4,4,5,5,46,4,35,5,47,47,25,25,
{16}4,5,3,6,2,7,1,8,
2,1,3,8,4,7,5,6,
3,4,2,5,{24}1>8[8:3],6,8,7,8,7,
{4}1b,,5w1[8:1],,
{8}
37,,24,3,75,6>8[24:5],,6/2h[8:3],,{24}7,6,5,{8}4,,
8-4[8:1],17,8,,
26,,{16}57,6,57,,24,3,{4}2-6[8:1]/4-8[8:1],24,
{8}2-4[8:1],6-8[8:1],2-8[8:1],6-4[8:1],2,6,,
3>1[8:1]/7<5[8:1],,3<5[8:1]/7>1[8:1],,3-7[8:1]/7-3[8:1],,,,
{16}15,2,3,4,15,6,7,8,
15,4,3,2,1pp4[4:3]/5pp8[4:3],48,37,26,
{4},,,,
{8}2v5[8:1]/6v1[8:1],,,,
8V64[8:1]/7V53[8:1],3V17[8:1]/4V28[8:1],,,,,
{16}2b/5-3[8:1],,,5,1-5[8:1],,,1,
7-1[8:1],,,7,3-7[8:1],,,3,
6h[16:3],,,5,6,5,6,5,4,5,4,3,4,3,4,,
1h[16:3]/2-5[8:1],,,2,1,,6,,
8h[16:3]/7-4[8:1],,,7,8,,
{8}3,25,6,47,
{24}3,8,1h[48:11],{16}2>7[4:1],,,2,1,,,,
8b,,,{4}45,
{16}1-6[8:1]/8-3[8:1],27,,{4}18,
{8}4-8[8:1]/5-1[8:1],27,45,,27,2b/7b,,
15,15,26,37,48,4-2[8:1]/8-6[8:1],15,
4-7[8:1]/8-3[8:1],,4-8[8:1]/8-4[8:1],,48,,2b/6b,,,
{32}1-5[8:1]/5-1[8:1],26,37,48,
{8},1b/5b,,
{16}37,,2,1,2,,7,8,7,,
{8}1>4[8:1]/6,7,18,,56,47,,
{16}25,,3,4,2,,6,5,7,,3,4,1,,6,5,
{8}8>8[2:1],2>8[8:3],4<8[4:1],6<8[8:1],,1b,,,
{24}1-5[8:1]/8-4[8:1],27,36,{8}45,1b/8b,,
{16}36,,7,8,7,,2,1,2,,6,5,6,,3,4,3,5,4,6,5,7,4,8,3,7,2,6,1,5,8,4,
37,48,15,26,37,48,
{8}1-5[8:1]/5-1[8:1],,1>5[16:3]/5<1[16:3],,5V31[4:1]/1V75[4:1],,,,,
3-8[8:1]/7-4[8:1],8>3[8:1]/4<7[8:1],,,,
3-5[8:1]/6-2[8:1],25,,,
2-6[8:1]/7-1[8:1],61,,,48,48,,
2-5[8:1]/6-1[8:1],1<6[8:1]/5>2[8:1],,,,
3-7[8:1]/6-4[8:1],74,,,
7-3[8:1]/2-8[8:1],38,,,15,15,,
8v5[8:1]/4v1[8:1],1>4[8:1]/5<8[8:1],,,,
3v1[8:1]/7v5[8:1],26,,,
2v8[8:1]/6v4[8:1],37,,,15,15,,
{24}2,3,4,7,6,5,1,2,3,8,7,6,
45,3,2,{8}1>4[8:1]/8<5[8:1],27,1b/8b,,,,,,,,,,,,,,,,,,,,,E
- Re:MASTER譜面のノーツの配置ミス、SLIDEの速度の修正を行いました。 -- けもがみ (2026-02-10 20:14:33)
- EXPERT譜面を追加しました。修正等ありましたらよろしくお願いします。 -- Sugar (2026-03-11 15:12:50)
- MASTER譜面のノーツの配置ミス、SLIDEの速度の修正を行いました。 -- けもがみ (2026-05-27 21:20:48)
最終更新:2026年10月04日 21:03