アットウィキロゴ

PANDORA PARADOXXX

アーティスト 削除

BPM EASY BASIC ADVANCED EXPERT MASTER Re:MASTER
150 6 7+ 11 13+ 14+ 15

EXPERT MASTER Re:MASTER
譜面制作者 譜面-100号 PANDORA BOXXX PANDORA PARADOXXX

EASY


BASIC

(150){1},
{1}1h[2:1],
{1}2h[2:1],
{1}3h[2:1],
{1}4h[2:1],
{4}5b,5,,6,
{4}6,,7,7,
{4},8,8,,
{4}1,1,1,2,
{4}2,2,3,3,
{4}3,4,4,4,
{1}4-1[2:1]/5-8[2:1],
{2},1b,{1},
{1}8-4[2:1],
{4},,,1h[4:3],
{2},8,
{4},(200.0)8,8,8,
{4}7,7,,6,
{4}6,6,5,5,
{4},4,4,4,
{4}3,3,,2,
{4}2,2,1h[2:1]/8h[2:1],,
{8},,(150.0)1/8,,2,2,,,
{8}2,,3,3,,,3,,
{8}4,4,,,4,5,4,5,
{8},,5,,6,6,,,
{8}6,,7,7,,,7,,
{8}8,8,,,1h[8:5]/8h[8:5],,,,
{8},,,,8,,8,1/8,
{8},,7,,7,7/8,,,
{8}6,5,6,5,,,3,4,
{8}3,4,,,5,4,5,4,
{8},,4/5,,3/6,3/6,,,
{4}3h[8:3]/4h[8:3],,,5h[8:3]/6h[8:3],
{16},,,,,,,,3/4,,,3/4,,,5/6,,
{16},5/6,,,3/4,,,4/5,,,5/6,,,,,,
{8}8,8,,,,1,1,,
{4},1-4[2:1]/8-5[2:1],,,
{4},,,4h[4:1],
{8},4h[4:1],,,5h[4:1],,,5h[4:1],
{8},,4h[4:1],,,3h[4:1],,,
{8}2h[4:1],,,1/8,,,{4}8-4[2:1],{1},
{2},1b,{1},
{2},(75.0)8^5[4:1],
{4},4,4^1[4:1],,
{4},7,7^2[4:1],,
{4},3,3^6[4:1],,
(150.0){1},
{8}1,,8,8,,1,,2,
{16},,,,3/4,,,3/4,,,3/4,,,,5,,
{8},4,4,,5,,6,,
{16},,7/8,,,7/8,,,7/8,,,,8,,,,
{8}1,1,,8,,7,,,
{16}5/6,,,5/6,,,5/6,,,,4,,,,5,,
{8}5,,4,,3,,,1/2,
{16},1/2,,,1/2,,,,{2}1-6[4:3]/2-5[4:3],{1},
{8},,,7-4[4:3]/8-3[4:3],,,,,{1},
{4},4h[8:5]/5h[8:5],,,
{16},,,3/5,,,3/5,,,4/6,,,4/6,,,,
{8},5h[8:3]/6h[8:3],,,,,,,
{1}3h[8:3]/4h[8:3],
{8}5/6,,,3/4,,,1/2,,
{8},7/8,,,{2}1b,{1},
{1}8-4[2:1],
{4},,,(225.0)5/6,
{2},5/6,
{4},7/8,,,
{4}7/8,,,1/2,
{2},1/2,
{4},3/4,,,
{4}3/4,,,5h[2:1],
{4},,,6h[2:1],
{4},,,7,
{4}7,7,8,8,
{4}8,1,1,1,
{4}2,2,2,3,
{4}3,4,4,5,
{4}5,6,6,7,
{4}7,8,8,1,
{4}2,3,4,5,
{4}6,7,8,1,
{4}2,3,4,5,
{4}6,7,8,1,
{4}3,5,7,1,
{4}3,5,7,1,
{4}4,7,2,5,
{4}8,3,6,1h[8:17],{1},
{8},,,,,,,8b,
{1}1b,
E

ADVANCED

(150)
{1} ,
{2} 18,2,3,4,5,6,
{4} 7,7,8,8b,
{8} 7,7,6,6,45,,3,3,2,2,18,,2,2,3,3,45,,6,6,7,7,18,,
7,7,6,6,45,45,3,3,2,2,18,18,2,2,3,3,45,45,6,6,7,7,18,18,
7,7,7,6,6,6,5,5,5,4,4,4,
{4} 3,4,5,6,7,8,1b,,,
{1} 8b,
{16} 1,,,1,,,1,,,1,,,
{4} 1-4[4:1],,,

(200)
{4} 6h[4:5],5,5,
{8} 4,4,4,,
{4} 5,3h[4:5],4,4,
{8} 5,5,5,,
{4} 4,6h[4:5],5,5,
{8} 4,4,4,,
{4} 5,3h[2:1],4,4,34,25,16,

(150)
{8} 7,7,7,57,5,5,56,6,6,36,36,,2,2,2,24,4,4,34,3,3,36,,,8,7,6,5,,,1,2,3,4,,,8,7,6,5,4,3,2,18,,27,,36,,
45,5,6,7,8,,,4,3,2,1,,,2h[8:3],,,3h[8:3],,,4h[8:3],,,5h[8:3],,,6h[8:3],,,7h[8:3],,,8h[8:3],,,1,,,
{16} 23,,,23,,,23,,
{4} ,
{16} 67,,,67,,,67,,
{4} ,
{16} 23,,,23,,,23,,,45,,,67,,,67,,,
{8} 67,,,8b,8b,,,,1b,1b,,,,
{16} 18,,,27,,,36,,,4-1[16:5]/5-8[16:5],,,
{4} ,,,
{8} 7/8h[8:3],,7,7,,,5h[8:3]/6,,6,6,,,3/4h[8:3],,3,3,,,1h[8:3]/2,,2,2,,,
{4} 8-4[2:1],,,,,,,4,45,5,45,4,45,36,,

(75)
{8} 5h[8:1],6h[8:1],7h[8:1],8h[8:1],1h[8:1],2h[8:1],3h[8:1],4h[8:1],
3h[8:1],2h[8:1],1h[8:1],8h[8:1],7h[8:1],6h[8:1],5,,
{12} 6h[12:1],5h[12:1],4h[12:1],3h[12:1],2h[12:1],1h[12:1],
8h[12:1],7h[12:1],6h[12:1],5h[12:1],4h[12:1],3h[12:1],
2h[12:1],1h[12:1],8h[12:1],7h[12:1],6h[12:1],5h[12:1],

(150)
{1} 4,
{8} 6,5,4,3,,24,35,46,,7,18,2,3,4,5,3,4,5,6,,57,46,35,,2,18,7,6,5,4,
6,5,4,3,,24,35,46,,7,18,2,3,4,5,3,4,5,6,,57,46,35,,2,18,7,6,5,4,
{4} 3h[4:1],4,
{8} 3,4,5,
{4} 6h[4:1],5,
{8} 6,5,45,,5,5,6,6,7,7,8,8,1,1,2,2,3,3,4,45,,5,4,3,2,
{16} 2,,,18,,,23,,,45,,,
{8} 67,5,4,6,5,4,3,,24,35,46,,7,18,2,3,4,5,

6h[8:3],,,5h[8:3],,,4h[8:3],,,3,,,3,3,35,5,45,4,46,6,46,4,45,5,
{4} 5b,,,
{1} 4b,

(225)
{4} 5-8[4:1],,,1-4[4:1],,,5-8[4:1],,,1-4[4:1],,,5,5,6,6,7,7,8,8,1,2,3,4,5,6,7,8,1,2,3,4,
{8} 5h[4:3],,4,4,4,,4h[4:3],,5,5,5,,5h[4:3],,4,4,4,,4h[4:3],,5,5,5,,
5h[4:3],,3,3,3,,4h[4:3],,6,6,6,,5,,,36,,,27,,,18,,,
{4} 3,2,1,8,7,6,6h[4:1],7h[4:1],8h[4:1],1h[4:1],2h[4:1],3,
{8} 3,3,2,2,1,1,8,8,7,7,6,,6,7,8,1,2,3,3,2,1,8,7,6,
45,6,7,18,2,3,45,3,2,18,7,6,45,45,36,2V41[8:13]/7V58[8:13],
{0.5} ,
{8} ,1b/8b,3b/6b,
{1} ,,,E

EXPERT


(150)
{4} ,,,
{8} ,
{24} 18,2v3[3:10]/7,3/6v7[24:79],
{2} 45,,,,,,,
{20} 2,1,2,1,2,6,5,6,5,6,
{2} 4b/7b^2[8:1],
{16} 7,6,5,4,
{2} 3^6[8:1],
{16} 3,4,5,6,
{2} 2^7[8:1],
{16} 2,1,8,7,
{2} 6^3[8:1],
{16} 6,5,4,3,
{4} 1^4[8:1],5^8[8:1],
{16} 1,2,3,4,
{4} 6^3[8:1],2^7[8:1],
{16} 6,5,4,3,
{4} 5^8[8:1],1^4[8:1],
{16} 5,6,7,8,
{4} 2^7[8:1],6^3[8:1],
{16} 2,1,8,7,16,,7,8,7,,38,,2,1,2,,47,,6,5,6,,25,,3,4,3,,6,5,5,5,7,5,5,5,8,5,5,5,1,5,5,5,
{12} 2,5,5,
{4} 3b,8,,,
{24} 3,4,5,6,5,4,
{4} 3,,,
{16} 5h[8:1],,,5h[32:3],,,5h[16:1],,,5h[24:1],,,3,6,3,6,
{24} 4,5,4,5,4,5,
{4} 4,


(200)
{4} 2b/7b,5,
{8} 1,7,2,7,3,7,4,7,2,7,2,6,2,5,
{16} 1,8,1,8,
{8} 1,7,1,8,2,,6,4,5,3,
{16} 7,5,7,5,
{4} 7,
{16} 2,4,2,4,
{4} 2,
{16} 6,3,6,3,
{8} 6,3,


(150)
{16} 7,3,6,2,5,3,8,1,7,
{8} 3p7[8:1],4,5,6q2[8:1],5,4,3v1[8:1],8,7,6v8[8:1],2,3,
4p3[4:1],,7,8,7,6,5q6[4:1],,2,1,2,3,
4h[4:1],6,7,4/8h[4:1],3,2,1h[4:1]/8,7,6,1/5h[4:1],2,3,
4h[4:1]/5,6,7,4/8h[4:1],3,2-6[8:1],8,7b-4[8:1],,3b-8[8:1],,6b-1[8:1],,4b,
3h[4:1],4,5,3/6h[4:1],8,1,2h[4:1]/6,1,8,2/7h[4:1],6,5,
4^1[8:1],6,7,8^5[8:1],2,3,4^1[8:1],6,7,8^5[8:1],2,3,4^1[8:1],6,7,8^5[8:1],2,3,
{4} 4>5[4:1],,,


{16} 2h[8:1]/5h[8:1],,,3h[8:1]/6h[8:1],,,4b/7b,,2,2,2,,
1h[8:1]/6h[8:1],,,2h[8:1]/7h[8:1],,,3b/8b,,6,6,6,,
3h[8:1]/7h[8:1],,,4h[8:1]/8h[8:1],,,1h[8:1]/5h[8:1],,,2h[8:1]/6h[8:1],,,
1h[8:1]/5h[8:1],,,4h[8:1]/8h[8:1],,,3b/7b,,8,1,7,2,
{8} 6qq1[4:1],6h[8:3],,,,3pp8[4:1],3h[8:3],,,,
{16} 2h[8:1]/6h[8:1],,,1h[8:1]/4h[8:1],,,3h[8:1]/7h[8:1],,,5h[8:1]/8h[8:1],,,2b/7b,,,3,6,
{24} 4,5,4,5,3,6,
{16} ,,,


{24} 1,2,3,
{4} 4,
{24} 8,7,6,
{4} 5,
{24} 2,3,4,
{4} 5,
{24} 7,6,5,
{4} 4,
{24} 15,26,37,
{4} 48,
{24} 48,37,26,
{4} 15,
{24} 24,35,46,
{4} 57,
{24} 57,46,35,
{4} 24,6,,,
{12} 8,6,1,5,2,4,3,1,4,8,5,7,
{16} 3,4,4,4,2,4,4,4,1,4,4,4,8,4,4,4,
{12} 7,4,4,
{4} 6b<3[8:3]*qq3[8:3],,,


(75)
{16} 8p4[8:1]*q4[8:1],8,26,26,
{4} ,
{16} 2p6[8:1]*q6[8:1],2,48,48,
{4} ,
{8} 5q1[8:1],7,4p8[8:1],2,5p4[8:1],7,1,3,
{12} 8V61[12:1],8V62[12:1],8V63[12:1],
{4} ,
{12} 1V38[12:1],1V37[12:1],1V36[12:1],
{4} ,
{24} 8>6[4:1],1>7[4:1],2>8[4:1],3<1[4:1],4<2[4:1],5<3[4:1],
{4} ,


(150)
{8} ,,,,,
{16} 8,1,8,7,8,1,
{4} 2b^5[8:1],
{16} 1,8,
{8} 7^4[8:1],,8,2,1-4[8:1],,8,2,
{16} 7/8v5[8:1],7v2[8:1]/8,
{8} ,,,7^4[8:1],,
{16} 8,1,
{8} 2^5[8:1],,1,7,8-5[8:1],,1,7,
{16} 1v4[8:1]/2,1/2v7[8:1],
{8} ,,,2^5[8:1],,
{16} 1,8,
{8} 7^4[8:1],,8,2,1-4[8:1],,7,2,
{16} 1/8v3[8:1],1v6[8:1]/8,
{8} ,,,7^4[8:1],,
{16} 8,1,
{8} 2^5[8:1],,1,7,8-5[8:1],,2,7,
{16} 18,27,,,8,1,7,8,
{8} 1z5[4:1]/7s3[4:1],,,,,26,35,4p8[8:1],,7,6,5q1[8:1],,2,3,
{16} 4,6,3,5,4,6,5,7,4,6,3,5,2,6,3,7,4,8,3,7,2,6,1,5,2,6,3,7,2,8,
{4} 1s5[8:1],
{16} 6,7,
{8} 8z4[8:1],,2,1,
{16} ,2h[8:1]/4h[8:1],,,5h[8:1]/7h[8:1],,,
{32} 1b/8b,27,
{16} 36,,1,8,1,2,1,8,
{4} 7^4[8:1],
{16} 8,1,
{8} 2^5[8:1],,6,7,8-4[8:1],,1,6,
{16} 3v1[8:1]/8,3/8v6[8:1],
{8} ,,,


{16} 2,,3,5,4,,7,,6,4,5,,3,,5,2,4,,6,,4,7,5,,
4,5,5,5,6,4,4,4,3,5,5,5,7,4,4,4,
{12} 2,5,5,
{4} 4b,7,,,
{12} 2,4,1,5,8,6,5,7,4,8,3,1,


(225)
{4} 5b^2[4:1]*^8[4:1],,,1^4[4:1]*^6[4:1],,,2^5[4:1]/5^8[4:1],,,4^1[4:1]/7^4[4:1],,,
1h[4:1]/7h[4:1],,2h[4:1]/8h[4:1],,1h[4:1]/6h[4:1],,
{8} 4h[4:1]/8h[4:1],,,3h[4:1]/5h[4:1],,,4h[4:1]/7h[4:1],,,2h[4:1]/5h[4:1],,,
{4} 6h[4:1],8h[4:1],4h[4:1],2h[4:1],
{6} 1h[6:1],8h[6:1],7h[6:1],8h[6:1],1h[6:1],2h[6:1],


{8} 8,8,8,3,3,3,6,6,6,1,1,1,6,6,5,3,3,4,5,5,6,4,4,3,1,1,1,6,6,6,3,3,3,8,8,8,
1b-6[8:1],,8,8b-3[8:1],,2,2b-5[8:1],,7,7b-4[8:1],,1,
{4} 1-5[8:1],8-6[8:1],2b,8-4[8:1],1-3[8:1],7b,2-5[8:1],1-6[8:1],8b,7-4[8:1],8-3[8:1],1b,
2-6[8:1],8b-4[8:1],1,7b-3[8:1],1-5[8:1],8b,2-7[8:1],6b-3[8:1],1-5[8:1],8b-4[8:1],3-6[8:1],7b-2[8:1],
1b-6[8:1],8b-3[8:1],2b-5[8:1],7b-4[8:1],3b-8[8:1],6b-1[8:1],2bq4[4:9],7bpp5[1:2],
{0.5} ,
{8} ,3b/6b,1b/8b,E

MASTER

(150){4} ,,, {8} ,{16} ,
{48}8,17,26,
3/5<4[8:25],4,,{16},,,,,,,{2}4h[4:1],
4h[4:1],5h[4:1],5h[4:1],6h[4:1],
6h[4:1],{20}6,4,6,4,6,3,5,3,5,3,
{16}2b/6b,,,,3,4,3,4,3,2,3,4,3,,45,,
7,8,7,8,7,5,7,8,7,,45,,
2,1,2,8,2,4,2,8,2,,45,,
7,4,6,5,6,2,5,4,
{8}3/6-3[8:1],3,2,1-5[8:1],8,7,6-1[8:1],4,3,2-6[8:1],8V24[8:3],{4}8V64[4:1],,
{16},,7,,37,,6,5,6,5,7,7,3,4,3,5,25,,
3^5[8:1]/6,,7,7,7,,8^5[8:1],,4,4,4,,3,,3qq3[4:1]/5pp5[4:1],,{2}35,
{20}2,5,2,5,2,6,3,6,3,6,3,7,4,7,4,{16}6,6,5,5,{12}4,5,6h[24:5],{4}4h[8:1],
2h[8:5]/4-8[8:3],,,{24}8,17,26,35,4h[12:10],,{4},,,
{16}5h[8:1],,,2h[32:3]/6h[32:3],,,3h[16:1]/7h[16:1],,,4h[32:1]/8h[32:1],,,
48,37,26,15,{24}4/8-4[8:1],7,6,5,4,3,{4}28,

(200)
2b/6b,48,{16}5,,4,,36,,27,,27,,1,1,8h[2:1],,,,2,,3,,4h[4:1],,8,,7^5[8:1],,2,,2,3,4,,45,,45,,36,,,,
47,,6,6,5h[4:1],,,,7h[4:1],,5,,4^7[8:1],,3,,2,,,,1z5[2:1],8-4[16:7],1,8,{4},,,
{12}36,5,4,3,4,5,36,27,18,

(150){16}2/7h[4:1],,3,,4,7,5h[4:1],,6,,8,5,8h[4:1],,1,,2,8,
2^5[8:1],,3,,2/6-1[8:1],,7,,26,,2,3,4,5,3,4,5,6,47,,47,,6,6,5,5,4,4,35,,
{8}2bV48[4:1]/6b,,8,7,6V84[4:1],6,4,3,2,{24}2,1,2,{8}1-5[8:1],3,3,,
15,26,37,4-2[8:1]/8-6[8:1],15,4b-7[8:1]/8b-3[8:1],,4b-8[8:1]/8b-4[8:1],,4b/8b,,
37,3b/7bV51[4:1],,1,2,3V15[4:1],3,6,7,8,{16}8,4,6,2,{8}15,
{24}2/4h[6:1],,,,,3/5h[8:1],,,,{16}4/6h[32:5],,,5h[16:3]/7,,,
{24}7,4h[24:3],,,6,3h[6:1],,,,5,2h[8:1],,,5h[24:5],1,,,,
{16}1h[32:5],,,2h[32:5]/8h[32:5],,,3h[32:5]/7h[32:5],,,4h[32:5]/6h[32:5],,,5<1[8:1],,,,{24}1,2,3,{16}4,,,,,,

3b/4h[8:1],,,3h[8:1]/5h[8:1],,,24,,{32}3,4,3,4,3,4,{16},5h[8:1]/6b,,,4h[8:1]/6h[8:1],,,57,,{32}6,5,6,5,6,5,{16},
6b-3[16:1],,,1b-6[16:1]/6b,,,1b/5b-1[16:1],,,2b-5[16:1]/5b,,,2b/6b-2[16:1],,,1b>7[16:3]/6b,,,{8}1b/7b,,,
3bV57[8:1]/7bV53[8:1],3bV17[8:1]/7bV13[8:1],,,,2bV46[8:1]/6bV42[8:1],2bV86[8:1]/6bV82[8:1],,,,
{16}8bv5[16:1],,,3bv8[16:1]/8b,,,3b/6bv3[16:1],,,1b/6b,,,{24}2,1,2,1,2,1,{32}3,8,4,7,{24}5,6,5,{8}6,18,
2b/7bV51[4:1],,1V73[4:1],2,3V15[4:1],4,5V73[4:1],4,3<8[4:1],2,2,1,
1^4[8:1],1,4,5^8[8:1],5,8,1-5[8:1],1V73[4:1],{4}1,,
1bp8[8:3]/5bp4[8:3],,,{12}5,5,1,1,2,2,3,3,4,2h[4:1]/5,,,
{20}7,4,7,4,7,4,6,3,6,3,5,2,5,2,5,{16}3,3,4,4,{12}5,4,3h[24:5],{4}5h[8:1],45,18,

(75)
{64}3b/7h[8:1],4,5,6,,8,1,2,3h[8:1],6,5,4,,2,1,8,7h[8:1],4,5,6,,8,1,2,3h[8:1],6,5,4,,2,1,8,
7h[8:1],4,5,6,,8,1,2,3h[8:1],6,5,4,,2,1,8,7,4,5,6,7,8,1,2,36,5,4,3,2,1,8,7,
2h[8:1]/6,5,4,3,,1,8,7,6h[8:1],3,4,5,,7,8,1,2h[8:1],5,4,3,,1,8,7,6h[8:1],3,4,5,,7,8,1,
2h[8:1],5,4,3,,1,8,7,6h[8:1],3,4,5,,7,8,1,2b,5,4,3,2,1,8,7,2b/6b,15,48,,,,,,
{24}17,,37,3,37,,48,,47,7,47,,
3h[24:1]/6h[24:1],,36,{48}4,5,3,6,4,5,3,6,4,5,3,6,4,5,3,6,,,
{96}1/5h[2560:1],2,3,4,5,6,7,8,1/5h[2560:1],2,3,4,5,6,7,8,1h[2560:1]/5h[2560:1],,,,,,,,
3h[2560:1]/7,6,5,4,3,2,1,8,3h[2560:1]/7,6,5,4,3,2,1,8,{24}3h[2560:1]/7h[2560:1],,
(150)1pp5[4:1]/5pp1[4:1],,,{16},,,,,,,,2,4,2,7,5,7,

3b^8[8:1]/6b,,,,{24}3/8-4[8:1],7,6,5,,,5,,,5,6,7,38,,,
1/6^1[8:1],,,3,,,16,2,3,4,,,2,1,2,{16}1,3,3,,24,,
3/6^1[8:1],,5,,{24}1-5[8:1]/6,2,3,4,,,4,,,4,3,2,16,,,
3^8[8:1]/8,,,46,,,38,7,6,5,,,7,8,7,{16}8,6,6,,57,,
2^5[8:1],8,1,,{24}2/5-1[8:1],6,7,8,,,8,,,8,7,6,25,,,
4/7^4[8:1],,,12,,,47,3,2,1,,,3,4,3,{16}4,1,1,,28,,
7^4[8:1],1,8,,{24}4-8[8:1]/7,3,2,1,,,1,,,1,2,3,47,,,
1/8^5[8:1],,,25,,,48,3,2,1,,,15,26,37,48,1,2,3,4,15,26,37,48,
{4}1bs5[4:1]/5bs1[4:1],,{8},48,37,2^5[8:1]/6^1[8:1],,2-6[8:1]/6-2[8:1],,26,,{16}48,48,48,,
3,4,3,4,3,2,3,7,8,7,6,7,8,7,{24}2b,4,3,{16}5,4,{24}7,5,6,{16}4,5,{24}3,4,3,{32}25,,,,8,17,26,35,{8}4,
6^1[8:1]/1,34,{24}16,2,3,{16}4,,14,,45,,27,,56,4b/7b,,34,2b/5b,,18,2b/7b,,1,1,7,3,5,1b/6b,,
3^8[8:1],7,5,,{24}3/8-4[8:1],7,6,5,,,5,,,5,6,7,{16}28,,3,3,24,,6,6,57,,48,37,26,15,{32}6,7,8,1,2,3,{128}4,,,5,,,,,

{16}2b^8[8:1]/6b,,4,4,4,,5^8[8:1],,1,1,{8}1,2,2pp2[4:1]/8qq8[4:1],28,,,,
{20}3,8,3,8,3,8,2,7,2,7,1,6,1,6,1,{16}7,7,8,8,{12}1,8,7h[24:5],{4}1h[8:1],
5-1[8:3]/7h[8:5],,,{24}18,27,36,{8}4h[8:3]/5,,,{4}8s4[8:1]*z4[8:1],,

(225)4/5^8[4:1],3,2,1^4[4:1]/8,7,6,4/5^8[4:1],3,2,1^4[4:1]/8,7,6,
4h[4:1]/6h[4:1],,3h[4:1]/5h[4:1],,4h[4:1]/7h[4:1],,3h[4:1]/5h[4:1],{16},,
{64}7h[4:1],5h[64:15],,,{16},,,,,2h[4:1]/5h[4:1],,,,,,{64}5h[64:15],8h[64:15],,,{16},{4},
1h[4:1],7h[4:1],3h[4:1],5h[4:1],{6}6h[8:1],7h[9:1],8h[10:1],1h[16:1],2h[20:1],3h[24:1],

{8}4b/6b,46,4,4,35,35,5,5,36,36,3,3,26,26,6,6,
47,47,4,4,35,35,5,5,46,46,4,4,36,36,6,6,
47,47,4,4,4/7-4[8:1],,,2-7[8:1],,,5-2[8:1],,,1b,,,
{4}7-5[8:1],3/7-1[8:1],27,2-4[8:1]/8,2-8[8:1]/6,27,
{8}1/7-5[8:1],1,2/7-1[8:1],2,37,3,3-5[8:1]/6,6,3-1[8:1]/7,7,38,8,
{16}2/8-6[8:1],,2,,3/8-4[8:1],,3,,38,2,1,,1-3[8:1]/5,,5,,1-5[8:1]/6,,6,,16,7,8,,
3/8^6[8:1],,3,2,1/8-4[8:1],,1,,18,2,3,,1^3[8:1]/7,,7,6,5/1-5[8:1],,5,,15,6,7,,
1/7^5[8:1],,1,2,3/7-3[8:1],,3,,37,2,1,,1^4[8:1]/4,,4,,{24}14,5,6,7,,,7b,6,5,4,3,2,1,8,2b/7b,3,4,5,6,7,8,1,27,36,{1}4w8[8:13]/5w1[8:13],,
{8}
,4b/8b,{1}2b/6b,,E

Re:MASTER

(150)
{64}18,27,3/6h[32:43],4,5,,,,{8},,,{2}5,
5h[4:1],4h[4:1]/6h[8:3],
{2}3h[4:1]/6h[8:3],2h[4:1]/6h[8:3],
{4}1/6h[2:1],3,{24}4,6,4,6,4,6,3,5,3,5,3,5,

{16}3<6[8:1],,3,4,3,,8,,6,5,7,5,6>3[8:1],,
6,5,6,,1,,3,4,2,4,3>8[8:1],,
3,4,3,,5,,6,5,7,5,6<1[8:1],,
6,5,6,,4,,3,4,2,4,
3<6[8:1],,2,4,3,,
8,,6,5,7,5,
6>3[8:1],,7,5,6,,
1,,3,4,2,4,3>8[8:1],,
2,4,3,,5,,6,5,
7,5,6<1[8:1],,7,5,6,,4,,3,4,2,4,
{8}1>4[8:1],3,7,
8<5[8:1],6,1>4[8:1],
3,7,5<8[8:1],
6,3,,
{24}3,5,4,5,4,5,2,5,4,5,4,5,3,5,4,5,4,5,
{16}4,3,2,1,8,7,6,5,{4}4h[8:1],
8b,,,4b,,,,
{16}4,,,4,,,4,,,4,,,
{24}4,5,4,5,4,5,{32}4,3,2,1,8,7,6,5,{4}4,

(200){8}36,,4h[4:1],,5h[8:1],3h[8:1],
4h[8:1],2h[8:1],8h[4:1],,5,4,
3h[4:1],,4h[8:1],2h[8:1],3h[8:1],1h[8:1],
{16}4,3,5,4,{8}6h[8:1],4h[8:1],5,5,
4h[4:1],,6h[8:1],5h[8:1],8h[8:1],1h[8:1],
{16}6,,6,5,4>1[8:1],,,,{8}8,8,
8,6,4,2,8,6,
{16}3,4,2,6,5,7,3,5,1b,,,,

(150){8}2/5<8[8:1],6,4,1,{24}6,5,6,7,6,,
{8}4>1[8:1]/7,3,5,8,{24}3,4,3,2,3,,
{8}2/5<8[8:1],6,4,1,{24}6,5,6,7,6,,
{24}4/7,,5,,3,,3,5,4,6,5,7,4,6,3,5,2,4,
{8}1-4[8:1],7,5,8-5[8:1],2,4,
1-5[8:1],7,4,8-4[8:1],2,5,
1-6[8:1],7,4,8,2,1-5[8:1]/8-4[8:1],27,
1-3[8:1]/8-6[8:1],,1-5[8:1]/8-4[8:1],,18,,27,
8-5[8:1],2,{16}3,2,1-4[8:1],,7,,6,7,
8-4[8:1],,2,,3,2,1-5[8:1],,7,,4,,
{16}8,,,7,4,,6,,4,5,,,
45,,,3,5,,2,,{32}5,,2,3,4,5,6,7,
{16}8,,,7,,,6,,,1,18,,
{8}18,27,3>1[8:1]/6<8[8:1],45,,,

{48}18,27,36,4h[8:1]/5h[8:1],{8},{48}36,2-6[48:7]/7,{8}1h[8:1]/8h[8:1],{48},27,36,45,,,{4},
{48}78,16,25,3h[8:1]/4h[8:1],{8},{48}25,1/6-2[48:7],{8}7h[8:1]/8h[8:1],{48},16,25,34,,,{4},
{48}12,38,47,5h[8:1]/6h[8:1],{8},{48}47,38,{8}1h[16:5]/2h[8:1],{48},3,4,5h[2:1],{8},{48}8,7,{8}6h[8:1],
{48},7,8,1h[16:5],{8},{48}4-8[6:1],3,{8}2h[8:1],{48},38,47,56,,,{8},,
{8}5p8[8:1]/8q5[8:1],5<8[8:1]/8<5[8:1],,,,
1p4[8:1]/4q1[8:1],1>4[8:1]/4>1[8:1],,,,
{48}78,16,25,3h[8:1]/4h[8:1],{8},{48}25,16,7h[8:1]/8h[16:5],{8},{48}6,5,4h[16:5],{8},{48}1,2,{8}3h[8:1],{32},5,6,7,8,1,2,3,4,5,6,7,8,1,2,3,{8}4,,

{16}2>5[8:1],,1,1,8,,7>2[8:1],,6,6,5,,
4<7[8:1],,3,3,2,,1>4[8:1],,8,8,7,,
6<1[8:1],,5,5,4,,3<6[8:1],,2,2,1,,
8>3[8:1],,7,7,6,,5<8[8:1],,4,4,3,,
{4}2h[4:3],,,{64},13,48,57,6h[16:15],,,,,,,,,,,,{4},,,
{24}4,5,3,6,4,5,4,5,3,6,4,5,4,5,3,6,4,5,4,5,3,6,4,5,{16}4,3,2,1,{8}8,8,8,,45,,

(75)
{48}15,2,3,4,5,6,37,8,1,2,3,4,15,6,7,8,1,2,37,4,5,6,7,8,
15,2,3,4,5,6,37,8,1,2,3,4,15,6,7,8,1,2,37,4,5,6,7,8,
15,2,3,4,5,6,37,8,1,2,3,4,15,6,7,8,1,2,37,4,5,6,7,8,
15,2,3,4,5,6,37,8,1,2,3,4,1b/5,6,7,8,1,2,3/7b,,,8,,,

{64}4h[1280:1]/8,7,6,5,4,{192}3,7h[1280:1],,{64}2,1,8,7,{192}6,,2h[1280:1],{64}5,4,3,2,1,
4h[1280:1]/8,7,6,5,4,{192}3,7h[1280:1],,{64}2,1,8,7,{192}6,,1h[1280:1],{64}5,4,3,2,1,
4h[1280:1]/8,7,6,5,4,{192}3,7h[1280:1],,{64}2,1,8,7,{192}6,,2h[1280:1],{64}5,4,3,{96}2,1,,
{64}4h[1280:1]/8,7,6,5,4,{192}3,7h[1280:1],,{64}2,1,8,7,{192}6,,1h[1280:1],{64}5,4,3,2,1,
4h[1280:1]/8,7,6,5,4,{192}3,7h[1280:1],,{64}2,1,8,7,{192}6,,2h[1280:1],{64}5,4,3,2,1,
4h[1280:1]/8,7,6,5,4,{192}3,7h[1280:1],,{64}2,1,8,7,{192}6,,1h[1280:1],{64}5,4,3,2,1,

(150)
{8}8h[8:5],,,,,
{32}4,3,2,1,8,7,6,5,4,,,,
{8}45,37,{16}6<1[8:1],4,{8}1V37[8:1],1,,4,2,14,6,{24}3,4,5,4>1[8:1],5,6,{8},8,8,
18,26,{16}3>8[8:1],5,{8}8V62[8:1],8,,5,7,58,3,{24}6,5,4,5<8[8:1],4,3,{8}2v5[8:1],,,
8,37,{16}6<1[8:1],4,{8}1V37[8:1],1,,4,2,14,6,{24}3,4,5,4>1[8:1],5,6,{8},8,8,
{8}18,26,{16}3>8[8:1],5,{8}8V62[8:1],8,,5,7,58,3,{24}6,5,4,5<8[8:1],4,3,{8}2v5[8:1],,,

8,3-7[8:1]/6,7>2[8:1],{16}8,8,{8}8,6,5,37,{16}4-8[8:1],5,2,3,{8}1-5[8:1],1,8,8,27,
{16}3,4,3,5,3,2,3,4,3,1,3,5,{24}3,5,4,{16}6,5,6,4,6,7,6,5,6,8,6,4,{24}6,4,5,3,5,4,
{8}36,1,{16}3<6[8:1],4,{8}2,7,8,72,{48}3,4,,{32}2b/5b,,,,{48}6,5,,{32}4b/7b,,,,{48}3,4,,{32}1b/5b,,,,{48}6,5,,{8}4b/8b-4[8:1],4-8[8:1]/8,,
{8}1,3,{16}6<1[8:1],4,{8}1V37[8:1],1,,4,2,14,6,{24}3,4,5,4>1[8:1],5,6,{8},8,8,

{16}1-5[8:1]/8,,5,5,5,,8-4[8:1],,4,4,4,,
1-5[8:1],,5,5,5,,8,,4,4,45,,
{24}4,5,4,5,4,5,3,5,4,5,4,5,2,5,4,5,4,5,
{16}4,3,2,1,8,7,6,5,{4}4h[8:1],
{4}1-5[8:7],,,1,1>5[4:1]*<5[4:1],,,

(225)4^1[4:1]/5,6,7,8^5[4:1]/1,2,3,
4>1[4:1]/5,6,7,8^5[4:1]/1,2,3,
45,{8}6,3,7,,18,,{6}18,27,36,
{4}45,3,2,18,{8}7,56,,2,
{4}34,4-2[8:1]/5,5,4/5-7[8:1],
{6}4,3,2,18,7,6,
(112.5){16}35,3,3,46,6,6,35,3,3,46,6,6,35,3,3,45,
5,5,34,3,3,46,6,6,25,2,2,37,7,7,36,3,3,45,5,5,
(150){4}45,67,18,23,

(225){8}45,3,3,{24}3,4,5,{8}6,6,
{24}7,6,5,2,3,4,5,,,7,6,5,{16}4,,18,,
3,4,2,6,5,7,3,4,2,6,5,7,
3,4,1,6,5,8,3,4,1,6,5,8,
3,5,1,6,4,8,3,5,1,6,4,8,
{8}3,45,34,23,12,18,
87,67,56,{16}4,4,5,3,5,5,
4,6,3,3,4,2,6,6,5,7,3,6,
{24}4,5,4,5,4,5,3,6,3,6,3,6,2,7,2,7,2,7,
1,8,1,8,1,8,2,7,3,6,4,5,{32}4,3,2,1,8,7,6,5,
4,3,2,1,8,7,6,5,4,3,2,1,8,7,6,5-8[32:57],{8}4-1[4:7],,

{1}4b,{8},,,,,,,{48}18,27,36,45,,,
{1}1b/2,,E

  • Re:MAS作ったので共有。間違いあれば教えてください。 -- # (2020-07-05 15:34:18)
  • EXPERT ください! -- 名無しさん (2021-01-16 15:52:07)
    •  ジャンルってわかる方いますかね?? -- AU (2023-09-27 16:48:19)
  • MASTER譜面の配置ミスの修正、HOLDの修正を行いました。 -- けもがみ (2026-01-16 00:39:41)
  • ADV─序盤のホールド部分の修正(1ノーツ増えます) 2h[8:3],,,3h[8:3],,,4h[8:3],,,5h[8:3],,,6h[8:3],,,7h[8:3],,,8,,,,,, → 2h[8:3],,,3h[8:3],,,4h[8:3],,,5h[8:3],,,6h[8:3],,,7h[8:3],,,8h[8:3],,,1,,, -- らぐにゃ (2026-01-19 13:01:17)
  • Re:MASTER譜面の配置ミスの修正、HOLDの終点の修正、SLIDEの速度の修正、極小HOLD付き回転地帯の修正、ノーツの開始位置の調整を行いました。 -- けもがみ (2026-02-01 00:03:21)
名前:
コメント:

タグ:

+ タグ編集
  • タグ:
最終更新:2026年04月20日 20:42