EASY
BASIC
ADVANCED
EXPERT
MASTER
(156)
{16}3,24,,6,57,,1/8-4[8:1],,,,48,,3,,2,,18,,4,5,4,,
2-4[8:1]/7,,,,2b/6,,7,,8,,6,57,,3,24,,1-5[8:1]/8,,,,15,,
6,,7,,{8}1h[4:1]/8,3,8h[4:1],6,2h[4:1],4,8,4,{16}3,
24,,6,57,,1/8-4[8:1],,,,48,,3,,2,,6,57,,3,24,,1-5[8:1]/
8,,,,15,,6,,7,,1,8,1,8,1,8,1,8,
{48}1,2,3,4,5,6,7,8,1b,{16},,,
{32}8,7,6,5,{8}4-8[8:1],3,4/5-1[8:1],6,4-8[8:1]/5,3,
4b/5b,,
{16}2,4,,3,5,,4,6,,3,4,3,4,,28,,7,5,,6,4,,5,3,,6,5,6,5,,
17,,2,1,3,,6,5,6,5,47,,3,4,2,,15,,7,8,6,,3,4,3,4,25,,6,
5,7,,48,,2,4,,3,5,,4,6,,3,4,3,4,,28,,7,5,,6,4,,5,3,,6,5,6,
5,,17,,2,1,3,,6,5,6,5,47,,3,4,2,,15,,4,5,4,,8,1,8,27,,
18,18,,15,26,37,48,{8}1/5h[1:1],8,7,6,4,3,2,1,
2h[8:3],3,4,5h[8:3],6,7,8h[4:1],7,6h[8:5],7,8,1,2,
1h[4:1],2,3h[8:5],4,5,6,7,6,5,{16}6,3,6,3,
{8}45,45,36,36,27,27,18,18,
{16}8-4[8:1],1,7,2,8,,1-5[8:1],1,
,,15,,8,7,6,5,
4,5,4,5,
{48}4b,3,2,1,,,,,,,,,5b,6,7,8,,,,,,
2b,3,4,,,,,,,7b,6,5,,,,
{32}1,2,3,4,5,6,7,8,1,2,3,4,5,6,7,8,
1,2,3,4,5,6,7,8,1,2,3,4,5,6,7,8,
{1}1bpp7[2:3]/5bpp3[2:3],,
3h[4:7]/8qq2[2:1],2qq5[2:1],
1pp7[2:1]/6h[4:7],{2}7v4[8:1],
4v1[8:1],1V36[2:1]/5V72[2:1],,
4V27[2:1]/8V63[2:1],,
3V15[2:1]*v5[2:1],,8-4[2:1]*V62[2:1],,
{16}2h[1:1],,,4,,,5,,,6,,,7,,8,,7h[1:1],,,5,,,
4,,,3,,,2,,1,,2h[1:1],,,3,,,4,,,5,,,6,,7,,7h[1:1],,,6,,,5,,,4,,,
3,,2,,3h[1:1],,,5,5,,6,,,7,,,8,,7,,6h[1:1],,,4,4,,3,,,2,,,1,,2,,
2h[1:1],,5,5,,,6,,7,7,,,8,,7,,7h[1:1],,4,4,,,3,,2,2,,,1,,2,,
2b,,3,4,3,4,3>8[16:3],,5,5,,6,6,,5,,7,,6,5,6,5,6<1[16:3],,
4,4,,3,3,,4,,2,,3,4,3,4,3qq8[4:1],,
5,5,,6,6,,5,,7,,6,5,6,5,6pp1[4:1],,
4,4,,3,3,,4,,
{32}2,3,4,5,{16},,8,1,8,1,
{32}7,6,5,4,{16},,1,8,1,8,
{32},,,,1b,2,3,,,,8b,7,6,,,,
2b,3,4,,,,7b,6,5,,,,3b,2,1,,
5,6,7,8,1,2,3,4,5,6,7,8,1,2,3,4,
5,6,7,8,1,2,3,4,5,6,7,8,1,2,3,4,
{4}1-4[8:1]/5-8[8:1],,1-6[8:1]/5-2[8:1],1b/5b,
{16}18,,2,1,3,1,2h[8:1],,7,8,6,8,7h[8:1],,2,,46,,7,8,6,
8,7h[8:1],,2,1,3,1,2h[8:1],,7,,35,,6,5,7,5,6h[8:1],,
3,8,2,7,1,6,8,5,16,,3,4,2,4,3h[8:1],,6,1,7,2,8,3,1,4,
38,,7,8,6,8,7h[8:1],,2,4,3,5,4,6,5,7,48,,2,1,3,1,
2h[8:1],,7,5,6,4,5,3,4,2,15,,3,4,3,4,2h[8:1],,6,5,6,5,
7h[8:1],,4,,
{4}2pp8[4:1]/6pp4[4:1],,,3b/7b,
{16}18,,7-4[8:1],8,6,8,7,,2-5[8:1],1,3,1,2,,8,,34,,
2-5[8:1],1,3,1,2,,7-4[8:1],8,6,8,7,,1,,56,,3-8[8:1],4,2,
4,3,,6,1,7,2,8,3,1,4,38,,6-1[8:1],5,7,5,6,,3,8,2,7,1,6,
8,5,16,,2-6[8:1],1,3,1,2,,7,5,6,4,5,3,4,2,15,,7-3[8:1],
8,6,8,7,,2,4,3,5,4,6,5,7,1-5[16:1]/8,,,1b/7-4[16:1],,,
2-5[16:1]/7b,,,2b/8-4[16:1],,,1h[8:1]/8b,,,,{48}
7h[48:5]/1b,2,3,4,5,,,,,2h[48:5]/8b,7,6,5,4,,,,,
8h[48:5]/1b,2,3,4,5,,,,,1h[48:5]/8b,7,6,5,4,,,,,{8}27,
18,
{16}6,57,,3,24,,1-5[8:1]/8,,,,15,,6,,7,,18,,5,4,5,,2/
7-5[8:1],,,,37,,2,,1,,34,24,,56,57,,1/8-4[8:1],,,,48,,3,,
2,,{8}1/8h[4:1],6,1h[4:1],3,7h[4:1],5,1,5,{16}6,57,,
3,24,,7,8,6,1,5,2,4,,56,,3,24,,6,57,,2,1,3,8,4,7,5,,34,,
1,8,1,8,1,8,1,8,{48}1,2,3,4,5,6,7,8,1b,{16},,,
{32}8,7,6,5,
{16}4-2[16:1]*-7[16:1],,,4,,,
5-7[16:1]*-2[16:1],,,5,,,
{8}1-5[8:1]/8-4[8:1],3b/6b,1b/8b,{1},,,E
Re:MASTER
- ミスなどありましたらどなたでも修正お願いします -- Rh+ (2019-06-17 23:07:18)
- 3V15[2:1]/*v5[2:1],,8-4[2:1]/*V62[2:1],,→3V15[2:1]/*3v5[2:1],,8-4[2:1]/*8V62[2:1],, -- kmgm (2019-10-05 22:09:43)
- {16}4-2[16:1]/*-7[16:1],,,4,,, 5-7[16:1]/*-2[16:1],,,5,,,→{16}4-2[16:1]/*4-7[16:1],,,4,,, 5-7[16:1]/*5-2[16:1],,,5,,, -- kmgm (2019-10-05 22:10:47)
- 複数スライドの始点の定義がされていなかったので修正しました。 -- kmgm (2019-10-05 22:18:45)
- MASTER譜面のノーツの配置ミス、SLIDEの速度の修正を行いました。 -- けもがみ (2026-05-29 19:51:36)
最終更新:2026年10月04日 21:01