EASY
BASIC
ADVANCED
EXPERT
MASTER
(120){8}
1,28,37,46,8,17,26,3/5qq1[8:5],
5h[4:3],,,,,,,,
8-3[8:1]/7-4[8:3],,,,,,,{16}2,1,
{8}3h[4:3]/8h[4:1],,,,6h[4:1],,,,
8,17,26,35,1,28,37,6/4pp8[8:5],
4h[4:3],,,,,,,,
1-6[8:1]/2-5[8:5],,,,6-1[8:1],,,,
8h[4:3]/3h[4:1],,,,1h[4:1],,,,
{16}
2-6[8:1],2,2h[2:1],,,,,,
6-2[8:1],6,6h[2:1],,,,,,
3-7[8:1],3,3h[2:1],,,,,,
7-3[8:1],7,7h[4:1],,,,,,
{24}
1,8,1,8,1,8,2,7,2,7,2,7,3,6,3,6,3,6,4,5,4,5,4,5,
1,2,3,8,7,6,2,3,4,7,6,5,3,4,5,6,5,4,2,3,4,7,6,5,
{16}
3p5[8:1],3,3h[2:1],,,,,,
5p7[8:1],5,5h[2:1],,,,,,
7p1[8:1],7,7h[2:1],,,,,,
1p3[8:1],1,1h[2:1],,,,,,
3p5[8:1],3,3h[2:1],,,,,,
5p7[8:1],5,5h[8:3],,,,,,
{4}7,{24}3,6,3,6,3,6,2,7,2,7,2,7,1,8,1,8,1,8,
{16}4,5,4,8,2,8,3,4,3,1,2,1,5,5,1,1,
{48}1,28,37,46,,,{8},,,,,,,
(264)
{4}36,{12}2,3,4,5,6,7,{4}1-4[8:1]/8-5[8:1],18,
{16}
36,,,,8,17,26,35,,,,,1-5[8:1],,,,1,,,,
46,,,,1,28,37,46,,,,,8-4[8:1],,,,8,,,,
35,,,,8,17,26,35,,,,,1-5[8:1],,,,1,,,,
46,,,,1,28,37,46,,,,,8-4[8:1],,,,8,,,,
{8}
1-4[8:1],1,8-5[8:1],8,2-5[8:1],2,7-4[4:1],7,
1-5[4:1],1,8-4[4:1],8,2-5[8:1],2,7,,
{16}
36,,,,8,17,26,35,4,,,,1-4[8:1]*-6[8:1],,,,1,,,,
37,,,,1,28,37,46,5,,,,8-3[8:1]*-5[8:1],,,,8,,,,
26,,,,8,17,26,35,4,,,,1w5[8:1],,,,1,,,,
37,,,,1,28,37,46,5,,,,8w4[8:1],,,,8,,,,
{8}
1-4[8:1],1,8-5[8:1],8,2-5[8:1],2,7-4[4:1],7,
1-5[4:1],1,8-4[4:1],8,2-5[8:1],2,7,,
2,5,4,5,8,5,4,5,
1,5,4,5,7,5,4,5,
2,5,4,5,7,5,4,5,
1,2,3,4,5,6,78,,
7,4,5,4,1,4,5,4,
8,4,5,4,2,4,5,4,
7,4,5,4,2,4,5,4,
8,7,6,5,4,3,21,,
2,5,5,5,8,5,5,5,
1,5,5,5,7,5,5,5,
2,5,5,5,7,5,5,5,
2-5[8:1],5-2[8:1],2-7[8:1],7-2[8:1],7-5[8:1],,,,
7,4,4,4,1,4,4,4,
8,4,4,4,2,4,4,4,
7,4,4,4,2,4,4,4,
7-4[8:1],4-7[8:1],7-2[8:1],2-7[8:1],2-4[8:1],,,,
{4}
7-2[8:1],67,3-6[8:1],23,
{8}
7,8,6,1,5,2,4,3,
{4}
7-5[4:1],5-3[4:1],3-1[4:1],1-7[4:1],
7-5[4:1],5-3[4:1],3-1[4:1],1,
3-6[8:1],23,7-2[8:1],67,
{8}
3,4,2,5,1,6,8,7,
2,1,3,8,4,7,5,6,
4h[4:1]/7h[4:1],,,1h[4:1]/2h[4:1],,,36,,
{4}
2-7[8:1],23,6-3[8:1],67,
{8}
2,1,3,8,4,7,5,6,
{4}
2-4[4:1],4-6[4:1],6-8[4:1],8-2[4:1],
2-4[4:1],4-6[4:1],6-8[4:1],8,
6-3[8:1],67,2-7[8:1],23,
{8}
6,5,7,4,8,3,1,2,
36,1-3[8:1]/8-4[8:1],,18,,,27,
1-5[8:1]/8-6[8:1],,1-3[8:1]/8-4[8:1],,18,,,
2h[4:1]/7h[4:1],,,1h[4:1]/8h[4:1],,,{1}3p6[8:3]/7>2[8:3],
{8}
7h[4:1],,8,7,8,7,8,7,
2h[4:1],,1,2,1,2,1,2,
7h[4:1],,
{12}2,3,4,{16}1,2,3,4,
{12}7,6,5,{16}8,7,6,5,
{12}2,3,4,{16}1,2,3,4,
{12}7,6,5,
{8}
8h[4:1],,1,8,1,8,27,,
1,8,2,7,3,6,45,,
27,,7,68,,2,13,,
{1}
2h[2:1]/7h[2:1],
{8}
1-3[8:1],5,1,5,1-4[8:1],6,1,6,1-5[8:1],7,1,7,1-4[8:1],8,1,8,
1-3[8:1],5,1,5,1-4[8:1],6,1,6,1-5[8:1],7,1,7,1,8,27,,
{16}
15,2,3,4,5,6,7,8,1,2,3,4,5,6,7,8,
15,2,3,4,5,6,7,8,1,2,3,4,5,6,7,8,
15,2,3,4,15,6,7,8,
15,2,3,4,15,6,7,8,
{1}
1h[2:1]/5h[2:1],
{8}
2h[512:1]/6h[512:1],,,,,,7,1,7,,,3,,,8,,
{2}
2qq5[4:3],,,46,
{8}
3h[512:1]/7h[512:1],,,,,,2,8,2,,,6,,,1,,
{2}
7pp4[4:3],,,
{32}
5h[512:1],6h[512:1],7h[512:1],8h[512:1],1h[512:1],2h[512:1],3h[512:1],4h[512:1],
{4}
,
{8}
26,7,1,8,37,2,8,1,
26,7,1,8,37,2,8,1,
8,7,6,5,1,2,3,4,
{12}
6,5,7,5,6,4,6,5,6,3,4,3,
{8}
7h[2:1],,,1,1,,3,7,2,6,1,5,
{12}
3,2,1,8,7,6,
{8}
45,1-5[8:1]/8-6[8:1],,18,,,36,
1-3[8:1]/8-4[8:1],,1-5[8:1]/8-6[8:1],,18,,,
2h[4:1]/7h[4:1],,,1h[4:1]/8h[4:1],,,{1}6q3[8:3]/2<7[8:3],
{16}
46,,,,1<5[4:1],8<4[4:1],7<3[4:1],6>2[4:1],,,,,8-4[8:1],,,,8,,,,
35,,,,8>4[4:1],1>5[4:1],2>6[4:1],3<7[4:1],,,,,1-5[8:1],,,,1,,,,
46,,,,1<5[4:1],8<4[4:1],7<3[4:1],6>2[4:1],,,,,8-4[8:1],,,,8,,,,
35,,,,8>4[4:1],1>5[4:1],2>6[4:1],3<7[4:1],,,,,1-5[8:1],,,,1,,,,
37,,,,1<5[4:1],8<4[4:1],7<3[4:1],6>2[4:1],1,,,,8-5[8:1]*-3[8:1],,,,8,,,,
26,,,,8>4[4:1],1>5[4:1],2>6[4:1],3<7[4:1],8,,,,1-4[8:1]*-6[8:1],,,,1,,,,
37,,,,1<5[4:1],8<4[4:1],7<3[4:1],6>2[4:1],1,,,,8w4[8:1],,,,8,,,,
26,,,,8>4[4:1],1>5[4:1],2>6[4:1],3<7[4:1],8,,,,1w5[8:1],,,,1,,,,
{8}
27,1-5[8:1]/8-6[8:1],,18,,,27,
1-3[8:1]/8-4[8:1],,1-5[8:1]/8-6[8:1],,18,,,
36,1-3[8:1]/8-4[8:1],,18,,,36,
1-5[8:1]/8-6[8:1],,1-3[8:1]/8-4[8:1],,18,,,
45,1-5[8:1]/8-4[8:1],,18,,,45,
1-4[8:1]/8-5[8:1],,1<5[8:1]/8>4[8:1],,18,,,
{24}
1b/8b,2,3,4,,,,,,
1b/8b,7,6,5,,,,,,
8b/1bs5[2:3]*z5[2:3],2h[512:1]/7h[512:1],3h[512:1]/6h[512:1],4h[512:1]/5h[512:1],
{1}
,,,,
E
Re:MASTER
- 1,5,5,5,→2,5,5,5,の箇所、スライドの速さを修正しました。 -- けもがみ (2026-01-12 19:46:06)
最終更新:2026年10月04日 21:10