EASY
BASIC
ADVANCED
EXPERT
(180){4},,,,3,,,4,4,5,5,6,6,,,5,5,4,4,3,3<5[2:1],,,,6>4[2:1],,,,{1}3pp6[2:5],,,
{8}5h[4:1]/4b,,4,5,4,5,3,4,3h[4:1],,4,3,5,4,6,5,7h[4:1],,5,7,4,6,3,5,2>5[8:1],,,,6<1[8:1],,,,2h[8:3],,,4h[4:1],,3,4,3,5h[4:1],,4,5,4,6,5,6,7h[8:3],,,5h[4:1],,
6,5,6,4,5,3,4,2,5,3,6,4<6[8:1],,7,,7,5,6,4,5>3[8:1],,2,,2,4,3,5,4<6[8:1],,7,,7,5,6,4,5<8[8:1],,2,,1>4[8:1],,6,,
7,7,5,5,4,4,2,2,3/5,3,3,3,6/4,6,6,6,4,4,5,5,3,3,6,6,2,2,7,7,{16}1,8,1,8,1,8,1,8,
{1}1b,2,3,{2}4h[2:1],5h[2:1],6>4[2:1],,5h[2:1],4h[2:1],3<5[2:1],,4/5,,6,3,5,4,3h[1:1],,4,5,6h[1:1],,5h[1:1],,4h[1:1],,3,,
{8}3,3h[4:1],,4,2/5,,4,4,6,6h[4:1],,5,4/7,,5,5,4/6,4/6,,5/2,5/2,3,4,5,6-4[8:1],,3,,3,4,2/5,,6,6h[4:1],,5,7/4,,5,5,3,3h[4:1],,4,5/2,,4,4,5/3,5/3,,4/7,4/7,,2/6,2/6,3,3,5,5,3-5[8:1],,6,,4/7,4/7-4[8:1],,3,3,,3,4,2/5,5/2-5[8:1],,6,6,,6,5,7/4,7,6,6,2/5,2,3,3,4/7<4[8:1],,3,,3,3,5,5,4/6,4/6,,2/5,2/5,,6,5,4/7,4/7,,2/6,6/2>5[8:1],,7,,6-2[8:1],,4,,3-8[8:1],,6,,5-1[8:1],,3,,2,,1b/5b,,
{8}4/7,6,5,4,3h[4:1],,4,3,2/5,3,4,5,6h[4:1],,5,6,7/4,6,5,4,3/6,5,4,3,2/5,4,3,2,1>4[8:1]/4,,,,2/5,3,4,5,6h[4:1],,5,6,4/7,6,5,4,3h[4:1],,
4,3,2/5,3,4,5,3/6,4,5,6,4/7,5,6,7,5/8<5[8:1],,,,{16}3h[16:3],,,4h[16:3],,,5h[16:3],,,6h[16:3],,,8,,,,7h[16:3],,,5h[16:3],,,4h[16:3],,,2h[16:3],,,1,,,,3h[16:3],,,4,,,6h[16:3],,,5,,,{8}4/5,4/5,3/6,3/6,2/7,2/7,1>4[8:1]/8<5[8:1],,,,{16}3h[16:3]/6,,,4,,,2h[16:3]/5,,,3,,,1,,1,,6h[16:3]/3,,,5,,,7h[16:3]/4,,,6,,,8,,8,,2h[16:3]/5,,,3,,,7h[16:3]/4,,,6,,,{8}4/5,4/5,3-5[8:1]/6,,7-1[8:1],,2-6[8:1],,8b,,
{8}5/7,5/7,6,5,4/2,4/2,3,4,5,6,7,8,1>4[8:1]*<6[8:1],,,,5,5,3,3,7,7,1,1,2/5,2/5,3/6,3/6,4/7-3[8:1],,1,,{16}2h[8:1]/4h[8:1],,,3h[8:1]/5h[8:1],,,4h[8:1]/6h[8:1],,,5h[8:1]/7h[8:1],,,8,,8,,7h[8:1]/5h[8:1],,,6h[8:1]/4h[8:1],,,5h[8:1]/3h[8:1],,,4h[8:1]/2h[8:1],,,1,,1,,{8}8,7,6,5,1,2,3,4,5,4/6,3/7,2/8,1w5[8:1],,,,3h[8:5]/7h[8:5],,,,,,,2/5,2h[8:5]/5h[8:5],,,,,,,6/4,6/4,,4h[2:1]/6h[2:1],,,,,,5,,3h[8:3]/4h[8:3],,,,,
4,3,3,5,5,4,4,6,6,3,3,7,7,2,2,8,8,1/2,1/2,3/4,3/4,5/6,5/6,7/8,7/8,
{16}1,8,1,8,1,8,1,8,2,7,2,7,2,7,2,7,
{4}1b,,,2,2,3,3,4,
5,,,7,(160)7<4[8:5],,(150),3,
(170){8}3<5[16:9],,,,(160),,,(145),
(140){16}6,,,,,,,,5,,,,,,,(120),
{1}4,
E
MASTER
(180){4}
7/2q5[2:1],,,
8,8,7,6,5,7p4[2:1],,,
1,1,2,3,4,
{1}
5-1[4:3],4-8[4:3],5w1[4:3],,,
{8}
,2,7,7,1-5[8:1],6,1,6,
,3,8,8,2-6[8:1],7,2,7,
,7,2,2,8-4[8:1],3,8,3,
,6,1,1,7-3[8:1],2,7,2,
,2,6,6,4-8[8:1],7,4,7,
,2,5,5,3-7[8:1],6,3,6,
,6,3,3,5-1[8:1],2,5,2,
,7,4,4,6-2[8:1],3,6,3,
,3,8,8,2-6[8:1],6-3[8:1],2,7,
,6,1,1,7-3[8:1],3-6[8:1],7,2,
,2,7,7,1-5[8:1],5-2[8:1],1,6,
,7,2,2,8-4[8:1],4-7[8:1],8,3,
,2,7,7,1-5[8:1],6,1,6,
,7,2,2,8-4[8:1],3,8,2,
{16}
1,8,1,8,1,8,1,8,
1,8,1,8,1,8,1,8,
{32}
1,2,3,4,5,6,7,8,
1,2,3,4,5,6,7,8,
1,2,3,4,5,6,7,8,
1,2,3,4,5,6,7,8,
{4}
1b,,,
{8}
2,8,2h[4:3],,,,,,
7,1,7h[4:3],,,,,,
2,8,3h[2:1],,,,1h[2:1],,,,
8h[1:1],,,,,,,,
6h[2:1],,,,1h[2:1],,,,
{1}
8w4[4:3],,
{2}
3h[2:1],1h[2:1],2h[2:1],8h[2:1],
1-5[4:3],,8h[2:1],6h[2:1],
{8}
5h[4:3],,,,,,1h[8:1],8h[8:1],
{2}
1h[2:1],3h[2:1],4w8[4:3],,,
{16}
5,6,7,8,4,3,2,1,
7b,,2h[16:1],1,,,1,,7h[16:1],8,,,27,,36,,
4,,6h[16:1],5,,,6,,3h[16:1],4,,,18,,36,,
5,,3h[16:1],4,,,3,,6h[16:1],5,6,,8,,1,,
2,,7h[16:1],8,,2h[16:1],1,,1-5[8:1]/8-4[8:1],27,36,,18,,,,
2,,7h[16:1],8,,,7,,2h[16:1],1,,,27,,36,,
5,,3h[16:1],4,,,3,,6h[16:1],5,,,18,,36,,
7,,2h[16:1],1,,7h[16:1],8,,2h[16:1],1,,8h[16:1],1,2,3,,
5,,3h[16:1],4,,2,1,2,8-4[8:1],,2,,8,,1,,
2,,7h[16:1],8,,,7,,2h[16:1],1,,,27,,36,,
5,,3h[16:1],4,,,3,,6h[16:1],5,6,,8-3[8:1]/1,,36,,
1-6[8:1],,1,,7-4[8:1],,7,,2>5[8:1],,,2,8,7,6,,
3,,46,37,28,,1,,2-6[8:1]/8,37,4/6-3[8:1],,2,,,,
7,,1h[16:1],8,,,1,,8h[16:1],1,,,27,,36,,
4,,5h[16:1],4,,,5,,4h[16:1],5,4,,5h[16:1],4,5,,
8,,2h[16:1],1,,7h[16:1],8,,18,27,36,,45,36,27,,
1,,7h[16:1],8,,2h[16:1],1,,18,27,36,,1b,,,,
{16}
5,3,5,3,4,2,4,2,
8,7,6,5,1,2,3,4,
6,4,6,4,5,3,5,3,
7,6,5,4,8,1,2,3,
5,4,6,3,7,2,8,1,
8,7,6,5,1,2,3,4,
{24}
8,7,6,1,2,3,8,7,6,1,2,3,
8,7,6,1,2,3,
{32}
8,7,6,5,4,3,2,1,
{16}
8,4,8,4,1,3,1,3,
1,8,7,6,1,2,3,4,
7,3,7,3,8,2,8,2,
8,7,6,5,8,1,2,3,
{24}
7,6,5,2,3,4,8,7,6,1,2,3,
7,6,5,8,7,6,2,3,4,1,2,3,
{16}
8,7,6,5,1,2,3,4,8,7,6,5,
{32}
1,2,3,4,5,6,7,8,
{16}
1,6,1,6,2,7,2,7,
{24}
1,2,3,4,5,6,1,8,7,6,5,4,
{16}
1,7,1,7,8,6,8,6,
{24}
1,2,3,4,5,6,1,8,7,6,5,4,
{16}
1,5,1,5,8,6,8,6,
{24}
8,1,2,3,4,5,1,8,7,6,5,4,
1,2,3,8,7,6,1,2,3,8,7,6,
1,2,3,8,7,6,
{32}
1,2,3,4,5,6,7,8,
{16}
1,6,1,6,8,5,8,5,
{24}
1,2,3,4,5,6,1,8,7,6,5,4,
{16}
1,7,1,7,8,6,8,6,
{24}
8,1,2,3,4,5,1,8,7,6,5,4,
{16}
1,8,1,8,2,7,2,7,
3,6,3,6,2,7,2,7,
4b,5,6,7,3b,4,5,6,
2b,3,4,5,
{24}
1b,2,1,2,1,2,
{16}
8b,7,6,5,4/1b,2,3,4,
5/8b,7,6,5,4/1b,2,3,4,
5/8b,7,6,5,4/1b,8,7,6,
5/8b,7,6,5,4/1b,8,7,6,
8b,1,8,1,7,8,7,8,
1,2,3,4,8,7,6,5,
1b,8,1,8,2,7,2,7,
1,2,3,4,8,7,6,5,
4/1b,2,3,4,5/8b,7,6,5,
4/1b,2,3,4,5/8b,7,6,5,
4/1b,2,3,4,5/8b,1,2,3,
4/1b,2,3,4,5/8b,1,2,3,
4/1b,5,1,6,1,7,1,8,
7,6,5,4,8,1,2,3,
8b,5,8,4,8,3,8,2,
8,7,6,5,
{24}
8,1,2,3,4,5,
{1}
6b>3[2:3],,
6>3[2:3],,
{4}
3,3,6,6,
{8}
2,2,7,7,1,1,8,8,
{24}
2,3,4,7,6,5,2,3,4,7,6,5,
1,2,3,8,7,6,1,2,3,8,7,6,
4,5,4,5,4,5,3,6,3,6,3,6,2,7,2,7,2,7,
{32}
1,8,7,6,15,48,37,26,
{4}
1b-5[4:9]/5b,,,,,,,,,,,1,
(160){16}
1,,,2,,,3,,
(150){4}
4,8,
(170){2}
7h[3712:3879],
(160){8},,,
(145),
(140){2}
4h[2:1],
{4}
5h[96:161],
{16}
,,,
(120),
{1}
6h[1:1],,,
E
Re:MASTER
- EXPERT譜面を追加しました。修正等ありましたらよろしくお願いします。 -- Sugar (2026-03-09 21:46:32)
- MASTER譜面のBPMを修正しました。 -- けもがみ (2026-03-10 19:15:04)
- EXPERT譜面のBPMを修正しました。 -- Nilmarese (2026-03-11 15:21:20)
最終更新:2026年10月04日 09:34