EASY
BASIC
(260.0){1},,,,
{1}1h[2:1],
{1}2,
{1}1,
{1}8,
{2}7,7,
{1}6,
{1}5,
{1}4,
{1}3,
{2}2,2,
{2}1,1,
{2}8,8,
{2}7,7,
{2}7/8,7/8,
{2}1/8,1/8,
{2}1/2,1/2,{1},
{2}1,1,
{2}2,2,
{2}1,1,
{1}2h[2:1],
{2}6,6,
{2}5,5,
{2}6,6,
{1}5h[2:1],
{2}3,3,
{2}4,4,
{2}5,5,
{4}6,6,6,,
{2}7,7,
{2}8,8,
{1}7-4[4:3],,
{2}4,4,
{2}3,3,
{2}2,2,
{4}2,2,2,,
{2}1,1,
{2}8,8,
{1}8h[2:1],
{1}7h[2:1],
{2}6,6,
{2}5,5,
{2}4,4,
{4}3,3,2,2,
{2}3,3,
{2}4,4,
{1}5h[2:1],
{1}6h[2:1],
{2}7,7,
{2}8,8,
{2}1,1,
{2}2,2,
{2}1,1,
{2}8,8,
{2}7,7,
{4}6,6,6,,
{2}7/8,7/8,
{2}1/8,1/8,
{2}1/2,1/2,
{2}2/3,2/3,
{2}1,1,
{2}8,8,
{1}7h[1:1],,
{1}1h[1:1],,
{1}2h[1:1],,
{1}8h[1:1],,
{1}7h[1:1],,
{2}8,8,
{2}2,2,
{2}8,8,
{1}7h[2:1],
{2}6,6,
{2}4,4,
{1}8h[4:7],,
{2}8,8,
{2}7,7,
{2}6,6,
{4}7,7,7,,
{2}8,8,
{2}1,1,
{1}2-7[4:3],,
{4}8,8,,,
{4}1,1,,,
{4}2,2,,,
{2}1h[2:1],8,
{4}7,7,,,
{4}6,6,,,
{4}7,7,,,
{4}8,8,8b,,
{2}1,1/2,
{2}8,7/8,
{2}6,5/6,
{2}4,3/4,
{4}5,5,6,,
{4}5,5,4,,
{1}3h[1:1],,
{1}1,
{1}3,
{1}1h[1:1],,
{1}8h[1:2],,,,
{1}1h[4:5],,
{1}1,,
{2}2,3h[2:1],{1},
{1}2h[4:3],
{1}1h[1:4]/8h[1:4],,,,,
E
ADVANCED
(260.0){1},,,,,
{4}1h[2:1],,,1,
{4}2h[2:1],,,2,
{4}3h[2:1],,,2,
{2}1h[2:1],8h[2:1],
{4}7h[2:1],,,7,
{4}6h[2:1],,,6,
{4}5h[2:1],,,5,
{8}6h[4:3],,,7,,,7,,
{2}6,5,
{2}4,3,
{2}4,5,
{2}6,7,
{2}7,6,
{2}5,4,
{2}3,2,
{1}1h[4:3],
{4}2,3,4,5,
{4}4,3,3,,
{4}4,5,6,7,
{4}8,1,1h[4:1],,
{4}8,8,7,7,
{4}6,6,5,5,
{4}6,7,8,1,
{4}1/2,1/8,1/8,,
{4}8,7,6,7/8,
{4}1,2,3,1/2,
{4}8,8,7,7,
{4}8,1/8,1,1/2,
{1}3h[4:3],
{1}4h[4:3],
{1}1-6[4:3]/2-5[4:3],,
{4}4,4,3,3,
{4}4,5,6,,
{4}5,5,4,4,
{4}5,5/6,6/7,,
{4}4,4,3,3,
{4}2,2,1,1,
{1}8h[2:3],
{4},,,8b,
{4}1,2,3,2,
{4}1,8,7,6,
{4}7,8,1,2,
{4}1,8,7,1/8,
{1}2-5[2:1],
{1}7-4[2:1],
{1}1h[2:3],
{4},,,1b,
{4}2,2,3,3,
{4}2,2,1,1,
{4}8,8,7,7,
{4}6,6,5,5,
{4}4,4,5,5,
{4}3,3,7,7,
{4}1,1,8,8,
{4}1/2,2/3,1/2,,
{4}8,8,7,7,
{4}6,6,5,5,
{4}4,4,3,3,
{4}2,2,1,1,
{4}8,8,7,8,
{4}8,1,2,2,
{1}3h[1:1],,
{1}5h[1:1],
{1}2h[1:1],
{1}8h[1:1],
{1}1b,
{1}1h[1:1],
{1}3h[1:1],
{1}5h[1:1],
{1}7-3[2:1],
{4}2,3,4,5,
{4}4,3,3,,
{4}4,5,6,7,
{4}8,1,1h[4:1],,
{4}8,8,7,7,
{4}6,6,5,5,
{1}4h[2:3],
{4},,,4b,
{4}5,6,7,5/6,
{4}4,3,2,3/4,
{4}5,5,6,6,
{4}5,4,2/3,1/2,
{1}3h[4:3],
{1}4h[4:3],
{1}2-7[4:3]/3-6[4:3],
{4},,,7b/8b,
{4}1,1,2,2,
{4}1,1,8,8,
{4}7,7,6,6,
{4}5,5,6,6,
{4}7,7,8,8,
{4}1,1,2,2,
{4}1,1,8,8,
{4}7/8,6/7,7/8,,
{4}1,1,2,2,
{4}3,3,4,4,
{4}5,5,6,6,
{4}7,7,8,8,
{4}1,1,2,1,
{4}1,8,7,7,
{1}6h[1:1],,
{1}4-8[2:1],,
{1}1h[1:1],,
{1}1h[1:2],,
{1}8h[1:1],
{4},1,8,7,
{1}1h[4:5],,
{1}1^6[4:5],,
{2},1h[2:1],
{1}8h[1:1],
{4}1h[4:3],,,8,
{1}1h[1:4],,,,,
E
EXPERT
(260){1},,,,{4}
27,,,13,
24,,,57,
68,,,36,
45,,,,
27,,,68,
57,,,24,
13,,,18,
{8}26,,,37,,,15,,
{4}
8,7,8,7,
6,5,6,5,
4,3,4,3,
2,1,2,1,
8,1,2,3,
4,5,6,7,
8,7,6,5,
2,3,2,1,
18,7,6,7,
1,2,7,27,
3,4,5,6,
5,4-1[4:1],,,
7h[4:2],6,1h[4:1],2,
8h[4:2],7,2h[4:1],3,
7,1,8,2,
18,27,45,,
6h[4:1],7,6,5,
4h[4:1],5,4,3,
2h[4:1],3,2,1,
67,56,45,34,
2h[4:3],1,8,7,
7h[4:3],6,5,4,
7h[4:3],8,1,2^7[8:3],
,,,,
8,1,2,3,
2,1,{8}8,7,{4}8,
18,2,3,2,
18,78,67,,
8h[4:3]/1,2,3,4,
4h[4:3]/8,7,6,5,
1h[4:6],,,,
,,,2b/7b,
6h[4:1],7,6,5,
4h[4:1],5,4,3,
2h[4:1],3,2,1,
78,12,23,12,
8,{8}7,6h[8:3],{4},7,
2,{8}3,4h[8:3],{4},3,
{2}
2h[4:2],1h[4:2],
8h[4:2],7b,
{4}
1,12,1,12,
3,34,3,34,
2,12,3,34,
2,12,8,78,
{8}
1,2,1,2,8,1,8,1,
7,8,7,8,6,7,6,7,
{4}
8,18,2,23,
1b/8,7/8b,6/7b,,
8,18,2,23,
1,18,7,67,
8,18,2,23,
4,45,6,67,
{8}
1,8,1,8,1,,7,8,
7,8,7,,1,,2,,
17,,,28,,,15,,
{1}
4h[4:3]/6h[4:3],
7h[4:3],
3h[4:3],
5h[4:3],
4h[4:3],
5h[4:3],
2h[4:3],
8h[4:3],
{4}
1,2,3,2,
18,7,6,7,
1,2,7,27,
3,4,5,6,
5,4-1[4:1],,,
7h[4:2],6,1h[4:1],2,
8h[4:2],7,2h[4:1],3,
7h[4:6],,,,
,,,1b/8b,
6h[4:1],7,6,5,
4h[4:1],5,4,3,
2h[4:1],3,2,1,
78,12,23,12,
8,{8}7,6h[8:3],{4},7,
2,{8}3,4h[8:3],{4},3,
{2}
2h[4:2],1h[4:2],
8h[4:2],7b,
{4}
1,12,1,12,
3,34,3,34,
2,12,3,34,
2,12,8,78,
{8}
1,2,1,2,8,1,8,1,
7,8,7,8,6,7,6,7,
{4}
8,18,2,23,
1b/8,7/8b,6/7b,,
8,18,2,23,
1,18,7,67,
8,18,2,23,
4,45,6,67,
{8}
1,8,1,8,1,,7,8,
7,8,7,,1,,2,,
17,,,28,,,15,,
{1}
4h[4:3]/6h[4:3],
{4}
1,,,1,
{1}
2,
1h[1:1],
,
1h[4:6],
,
8h[1:1],
{4},8,7,6,
1h[1:1],,,,
,1,2,3,
3,,7,7,
,1,1,2,
{2}3,1h[2:1],
8h[1:1],,
1h[2:1],2h[2:1],
{1}1h[1:4],
,
,
,
,
,,
E
MASTER
(260){1},,,{4}
2h[2:1]/7h[2:1],,,65,
34,,,57,
42,,,68,
31,,,36,
{8}
6,7,,54,3,2,,81,
{4}
27,,,54,
18,,,47,
52,,,54,
{8}
52,,,64,,,58,,
7h[4:1],,6,,5,4h[2:1],,3,
,3,,4,5,6,7,,
2h[4:1],,3,,4,5h[4:1],,3,
{4}
7h[4:1],5h[4:1],3h[4:1],1h[4:1],
{8}
7h[4:1],,6,,5,4h[2:1],,3,
,3,,4,5,6,7,,
3,,6,,74,,32,,
5,6,7,8,1,2,3,4,
{4}
7h[4:1],6,2h[4:1],3,
6h[4:1],7,3h[4:1],2,
8h[4:1],5,1h[4:1],4,
{16}
64,,,,53,,,,4,5,4,,,,5,,
{4}
6/1h[4:1],6,5/8h[4:1],5,
4/7h[4:1],4,3/6h[4:1],3,
2/5h[4:1],2,1/4h[4:1],1,
87,21,36,,
8/1-4[2:1],7,6,5,
1/8-5[2:1],2,3,4,
8/1-4[2:1],7,6,5,
7b,5b,3b,1b,
{2}
1-6[8:1]/6-3[8:1],1-4[8:1],
7^2[8:1]/2-6[8:1],3-6[8:1],
2-6[8:1],7-3[8:1],
{1}
2^7[2:1]/6^3[2:1],
{4}
6h[4:1],7,3h[4:1],2,
7h[4:1],6,2h[4:1],3,
8h[4:1],5,1h[4:1],4,
{16}
17,,,,28,,,,1,8,1,,,,1,,
{4}
3/8h[4:1],3,4/1h[4:1],4,
5/2h[4:1],5,6/3h[4:1],6,
{8}
8,,6,,4,2,,7,
,5,,3,1b,,,,
{4}
2/1^6[2:1],3,4,5,
7/8^3[2:1],6,5,4,
2/1^6[2:1],3,4,5,
31,42,86,75,
5/4-1[2:1],6,7,8,
4/5-8[2:1],3,2,1,
{1}
1^6[2:1]/2^5[2:1],
{16}
5,6,5,6,5,6,5,,,,,,43,,,,
{2}
6h[4:3]/3^8[8:1],7^2[8:1],
5h[4:3]/3^8[8:1],7^2[8:1],
{1}
6h[4:3]/3^8[8:1],
1-4[2:1]/8-5[2:1],
{2}
3h[4:3]/6^1[8:1],2^7[8:1],
4h[4:3]/6^1[8:1],2^7[8:1],
{1}
3h[4:3]/6^1[8:1],
3^8[2:1]/4^7[2:1],
{4}
6/8h[4:1],7,3/1h[4:1],2,
7/5h[4:1],6,2/4h[4:1],3,
2/8h[4:1],7,6/4h[4:1],3,
3/5h[4:1],6,7/1h[4:1],2,
2/6^1[2:1],3,4,5,
6/2^5[2:1],7,8,1,
{8}
32,,,86,,,65,,
{1}
31,
2h[4:3]/7h[4:3],
{4}
54,,,75,
{1}
42,
{4}
1h[4:1],3h[4:1],5h[4:1],7,
{1}
3h[4:3]/6h[4:3],
{4}
18,,,87,
{1}
21,
{8}
4,3,2,1,8,7,6,5,
7h[4:1],,6,5h[4:1],,4,3,4,
2h[4:1],,3,4h[4:1],,5,6,5,
7h[4:1],,6,5h[4:1],,4,3,4,
{4}
57,13,26,,
{8}
6h[4:1],,7,8h[4:1],,1,2,1,
3h[4:1],,2,1h[4:1],,8,7,8,
1,,3,,5,7,,2,
,4,,6,8b,,,,
{4}
8/4-1[2:1],7,6,5,
1/5-8[2:1],2,3,4,
8/4-1[2:1],7,6,5,
1/5-8[2:1],2,3,4,
7/6^3[2:1],8,1,2,
3/2^7[2:1],4,5,6,
{2}
,1b,
{16}
,,,,,,,,6,5,6,,4,5,4,,
{4}
8/2^5[8:1],8,7/6^3[8:1],7,
8/2^5[8:1],8,7/6^3[8:1],7,
8/2^5[8:1],8,7,7,
{1}
1-4[2:1]/8-5[2:1],
{4}
1/7^4[8:1],1,2/3^6[8:1],2,
1/7^4[8:1],1,2/3^6[8:1],2,
1/7^4[8:1],1,2,2,
{1}
8^3[2:1]/7^4[2:1],
{4}
6/8h[4:1],7,3/1h[4:1],2,
7/5h[4:1],6,2/4h[4:1],3,
2/8h[4:1],7,6/4h[4:1],3,
3/5h[4:1],6,7/1h[4:1],2,
2/6^1[2:1],3,4,5,
6/2^5[2:1],7,8,1,
{8}
34,,,57,,,68,,
{4}
24,8h[4:1],7h[4:1],6h[4:1],
5h[4:3],,,1h[4:1],
{1}
2h[1:1],
3b,
8h[4:3]/6h[4:3],
3-6[2:3]/7-2[2:3],
,
1h[1:1]/3h[1:1],
{4}
,16,87,64,
{1}
2h[1:1]/7h[1:1],
{4}
,6,2,4,
8,,34,1h[2:1],
,2h[4:1],3h[4:1],5h[4:1],
{2}
4h[2:1],5b,
{1}
1h[4:3]/4h[4:3],
{8}
31,2,,68,,,7,,
{1}
1-5[4:15],
,
,
,
7-3[8:1],
,
,
,
E
Re:MASTER
最終更新:2026年10月01日 21:19