EASY
BASIC
ADVANCED
EXPERT
MASTER
(160){8}
,,,,,,1x,2x,3x,8b,
56,8,34,1,56,8,34,1,56,8,34,1,56,47,56,12,
34,8,56,1,34,8,56,1,3/4w8[8:2],,,,,,C1,,
4,78,5,12,4,78,5,12,4,78,5,12,4,78,16,78,
5,12,4,78,5,12,4,78,5w1[8:2],,,,,18,27,18,
{16}
6h[8:1],,4,5,4,5,4,5,3h[8:1],,5,4,5,4,5,4,6h[8:1],,4,5,4,5,4,5,{8}E2,E8,E4,E6,
{16}
3h[8:1],,1,2,8,2,7,2,6h[8:1],,8,7,1,7,2,7,3h[8:1],,1,2,8,2,7,2,{4}6,C1,
{8}
3h[8:1],4,6h[8:1],5,2h[8:1],4,7h[4:1],5,
2h[8:1],1,7h[8:1],8,3h[8:1],1,6h[8:1],8,
{16}3h[16:2],,,2h[16:2]/4h[16:2],,,51,,
{8}6,18,3,18,
{4}5x-8[8:1],4x-1[8:1],5,3b/6b,
{16}12,,,56,,,38,,47,,6,5,6,,47,,
{8}6,12,3,78,6,12,3,78,6,12,3,78,6,12,47,12,
3,78,6,12,4,78,5,12,4>5[8:2],,,,,,C1,,
1-3[16:1],1,8-4[16:1],8,1-5[16:1],1,8-6[16:1],8,
1,2,3,4,E8,E2,E6,E4,
5-7[16:1],5,4-8[16:1],4,5-1[16:1],5,4-2[16:1],4,
8-4[16:1],8,1,1,2,,C1,,
{16}3,4,,5,4,,3,4,,8,1,,27,,27,,6,5,,4,5,,6,5,,1,8,,27,,27,,
3,4,,6,5,,3,4,,8,1,,27,,27,,
{4}1x-5[16:2]/8x-4[16:2],8>3[16:2]/1<6[16:2],18,2x,
{16}78,,,34,,,16,,25,,3,4,3,,25,,
{8}
1/6<4[16:3],,,,,5,46,37,2-5[16:1]/8,,2/8-4[16:1],,1-5[16:1]/8,,17,,
{4}6h[4:1],E2,3h[4:1],E8,45,E2,E1,E8,
C1,34,56,18,{8}2h[4:1]/7,,4h[8:1],5h[8:1],7h[4:1],,2,,
{4}18,C1,45,C1,1>4[16:1]/8<5[16:1],,3h[4:1]/6h[4:1],,
{32}
E1,E2,E3,E4,E5,E6,E7,E8,E1,E2,E3,E4,E5,E6,E7,E8,E1,E2,E3,E4,E5,E6,E7,E8,
E1,E2,E3,E4,E5,E6,E7,E8,E1,E2,E3,E4,E5,E6,E7,E8,E1,E2,E3,E4,E5,E6,E7,E8,
8x,,,,,,3x/7x,,,,,,1x/5x,,,,
{8},2h[4:1],3,4,{16}5>1[16:3],,,1<5[16:3],,,5,,{8}4,3,2,1,7/8-4[16:1],,,,
{32}
E1,E8,E7,E6,E5,E4,E3,E2,E1,E8,E7,E6,E5,E4,E3,E2,E1,E8,E7,E6,E5,E4,E3,E2,
E1,E8,E7,E6,E5,E4,E3,E2,E1,E8,E7,E6,E5,E4,E3,E2,E1,E8,E7,E6,E5,E4,E3,E2,
1x,,,,,,2x/6x,,,,,,4x/8x,,,,
{8},7h[4:1],6,5,{16}4<8[16:3],,,8>4[16:3],,,4,,{8}5,6,78,,
1-5[16:1]/2,,18,,45,,{16}C1,,4,5,4,,,,25,,7,8,7,,2,1,2,,7,8,7,,{8}16,25,34,
{16}47,,6,5,6,,3,4,3,,6,5,6,,{8}18,34,78,25,,7/8-4[16:1],,18,,
{16}
1,8,1,8,2b/7b,,6,5,6,,3,4,3,,7,8,7,,2,1,2,,7q2[16:4],8,7,,,1,,,4,,
{8},8,26,1,{16}37,,,26,,,15,,{4}8x>3[16:1]/4x<7[16:1],48,15,3b/7b,
{8}
35,E2,46,E8,35,E2,46,E8,35,E2,46,E8,35,17,46,28,
45,E2,45,E8,45,E2,45,E8,{4}4x>5[16:4]/5x<4[16:4],,,C1f,,,,,E
Re:MASTER
- スライドの速さが違うところがあるかもしれません。。。 -- MIRACLE (2020-03-07 22:23:22)
最終更新:2020年03月07日 22:23