アットウィキロゴ

夜明けまであと3秒

アーティスト BNSI(Taku Inoue)「シンクロニカ」より

BPM EASY BASIC ADVANCED EXPERT MASTER Re:MASTER
182 4 6 9+ 13 14 -

EXPERT MASTER Re:MASTER
譜面制作者 Jack ロシェ@ペンギン -

EASY


BASIC

(177.0){2}1,1,
{1}1,
{2}2,2,
{1}2,
{2}3,3,
{1}3,
{2}4,4,
{2}4,4/5,
{2},
(182.0)5,
{2}5,5,
{2},6,
{2}6,6,
{2},7,
{2}7,7,
{2},8,
{2}8,8,
{4},,8,8,
{4}8,,7,7,
{4}7,,6,6,
{4}6,,5,5,
{4}5,,4,4,
{4}4,,3,3,
{4}3,,2,2,
{4}2,,1,1,
{2}1,1/8,
{4},,2/7,2/7,
{4}2/7,,5,5,
{4}6,6,7,7,
{4}8,,1,1,
{4}2,2,3,3,
{4}3/4,,4,4,
{4}3,3,2,2,
{4}1,,8,8,
{4}7,7,6,6,
{4}5/6,,4/5,4/5,
{4}4/5,,4,4,
{4}3,3,2,2,
{4}1,,8,8,
{4}7,7,6h[2:3],,
{2},5h[2:1],
{2},3h[2:3],
{2},4h[2:1],
{2},2b,{1},
{2},1-5[4:3],{1},
{2},8-4[4:3],{1},
{2},2-6[4:3],{1},
{2},7-3[4:3],{1},
{2},1/8,
{4}2h[8:3],,,2h[8:3],
{2},1/8,
{4}7h[8:3],,,7h[8:3],
{2},1-4[4:3]/8-5[4:3],{1},
{2},4/5,
{1}4h[8:9]/5h[8:9],
{16},,,,,,,,4,,,4,,,4,,
{16},4,,,,,,,5,,,5,,,5,,
{16},5,,,,,,,4,,,4,,,4,,
{16},4,,,5,,,5,,,5,,,5,,,
{1}4/5,
{4}1,1,2,2,
{4}3,3,3/4,,
{4}5,5,6,6,
{4}7,7,7/8,,
{4}8,8,7,7,
{4}6,6,5/6,,
{4}4,4,3,3,
{4}2,2,1,1,
{4}8,8,7,7,
{4}6,6,{2}5-1[4:3],{1},,
{4}1,1,2,2,
{4}1/2,1/2,1/2,,
{4}8,8,7,7,
{4}7/8,7/8,7/8,,
{4}5,5,6,6,
{4}5/6,5/6,5/6,,
{4}4,4,3,3,
{4}3/4,3/4,3/4,,
{4}3,2,1b,,
{4}7,7,6,6,
{4}5,5,4,4,
{4}3,3,2,2,
{4}1,,2,2,
{4}3,3,4,4,
{4}5,5,6,6,
{4}7,7,8,,
{16}1,,,1,,,1,,,1,,,,,,,
{16}8,,,8,,,8,,,8,,,,,,,
{16}1,,,1,,,1,,,1,,,8,,,8,
{16},,8,,,8,,,1/8,
E

ADVANCED

(177.0){4}2,3,4,,
{4}3,4,5,6,
{4}7,6,5,,
{4}6,5,4,3,
{4}2,3,4,,
{4}2,3,4,5,
{4}7,6,5,4,
{4}3,2,1b,,
{4},,
(182.0)6,7,
{4}8,,7,8,
{4}1,2,3,2,
{4}1,,2,1,
{4}8,7,6,7,
{4}8,,6,7,
{4}8,1,3,2,
{4}1,8,6,7,
{4}8,1,2h[4:1],1,
{4}7h[4:1],8,2h[4:1],3,
{4}7h[4:1],6,3h[4:1],4,
{4}6h[4:1],5,2h[4:1],4,
{4}7h[4:1],5,3,3/4,
{4}6,5/6,2,1/2,
{4}7,7/8,1/2,1/2,
{4}7/8,7/8,1/8,1/8,
{8}1/8,1/8,1/8,1/8,1-4[4:1]/8-5[4:1],,,,
{4},,3,2,
{4}1b,,3,3/4,
{4}6,5/6,3,3/4,
{4}2/5,1,6,5/6,
{4}3,3/4,6,5/6,
{4}4/7,8,2,1/2,
{4}7,7/8,2,1/2,
{4}3/8,4,7,7/8,
{4}2,1/2,7,7/8,
{4}1/6,5,3,2,
{4}1b,,3,2/4,
{4}6,5/7,2,1/3,
{4}7,6/8,1/8,2/7,
{4}3/6,4/5,4-1[4:1]/5-8[4:1],,
{4},,1,8,
{4}1,2/7,1,1,
{4}8,8,1/8,2/7,
{4}3/6,4/5,{2}4>5[4:5],{1},
{2},5/4h[2:1],
{8}3h[8:3],,,2h[8:3],,,1h[8:3],,
{8},8h[8:3],,,7h[8:3],,,6h[8:3],
{8},,5h[8:3],,,4-8[4:1],,,
{2},2/5,
{16}5/6,,,5/6,,,5/6,,,5/6,,,5/6,,,5/6,
{8},5h[16:3]/6h[16:3],,,4/7,,,,
{16}3/4,,,3/4,,,3/4,,,3/4,,,3/4,,,3/4,
{8},3h[16:3]/4h[16:3],,,4/5h[2:1],,,,
{8}6h[8:3],,,7h[8:3],,,8h[8:3],,
{8},1h[8:3],,,2h[8:3],,,3h[8:3],
{8},,4h[8:3],,,5-1[4:1],,,
{2},3/8,
{16}7/8,,,7/8,,,7/8,,,7/8,,,7/8,,,7/8,
{8},7h[16:3]/8h[16:3],,,1/6,,,,
{16}1/2,,,1/2,,,1/2,,,1/2,,,1/2,,,1/2,
{16},,3/8,,,,,,5/6,,,5/6,,,5/6,,
{16},5h[16:3]/6h[16:3],,,,,,,3/4,,,3/4,,,3/4,,
{16},3h[16:3]/4h[16:3],,,,,,,4/5,,,4/5,,,3/6,,
{16},3/6,,,2/7,,,2/7,,,1/8,,,1/8,,,
{1}1b^4[8:3]/8b^5[8:3],
{4}3,2,1/8,,
{4}2,1,8,7,
{4}6,7,1/8,,
{4}7,8,1,2,
{4}1/8,2/7,3/6,,
{4}4/5,3/6,2/7,1/8,
{4}2,3,4,5,
{4}7,6,5,4,
{4}2,3,4,5,
{4}6,7,{2}1b/8b,{1},
{4}3,2,1b,,
{8}3/4,,2/5,,6,6,6,,
{4}3,3/4,2/5,1,
{8}5/6,,4/7,,3,3,3,,
{4}6,5/6,4/7,8,
{8}1/2,,3/8,,7,7,7,,
{4}2,1/2,3/8,4,
{8}7/8,,1/6,,2,2,2,,
{4}7,7/8,1/6,5,
{4}3,2,1b,,
{4}3/4,2/5,5/6,4/7,
{4}1/2,3/8,7/8,1/6,
{4}1/8,2/7,3/6,4/5,
{1}4-1[4:1]/5-8[4:1],
{4}1,8,1,2/7,
{8}1,1,1,,8,8,8,,
{4}1/8,2/7,3/6,4/5,
{16}5/7,,,5/7,,,5/7,,,5h[16:3]/7h[16:3],,,,,,,
{16}2/4,,,2/4,,,2/4,,,2h[16:3]/4h[16:3],,,,,,,
{16}4/5,,,4/5,,,3/6,,,3/6,,,2/7,,,2/7,
{16},,1/8,,,1/8,,,1b/8b,
E

EXPERT

(177){1}2h[1:1],
{2}4h[2:1],5h[2:1],
{1}7h[1:1],
{2}5h[2:1],4h[2:1],
{1}2h[1:1],
{2}4h[2:1],6h[2:1],
{2}8h[2:1],2h[2:1],
{2}4h[2:1],8b,
{2},
(182){2}6h[1:1],
{4}2,1,8h[2:1],,
{2}1h[2:1],3h[1:1],
{4}7,8,1h[2:1],,
{2}8h[2:1],6h[1:1],
{4}2,1,8h[2:1],,
{4}1h[2:1],,3h[2:1],4,
{4}6h[2:1],5,1h[2:1],3,
{4}8h[2:1],6,1,2,
{4}3,4,5,6,
{4}7,8,1/2,2/3,
{4}3/4,4/5,5/6,6/7,
{8}7/8,,1/8,,2,2,4,4,
{8}3,3,5,5,4,4,6,6,
{8}5,5,7,7,1,1,8,8,
{16}2,,2,,7,,7,,1,8,1,8,1,8,1,8,
{16}1,8,1,8,1,8,1,8,1h[16:3],,,5h[16:3],,,3h[16:3],,
{16},7h[16:3],,,5h[4:3],,,,3b,,,,2b,,,,
{8}1b-5[8:1],,,,6,6,2,2,
{8}8^5[8:1],8,,,,1/7,1/7,,
{8}3-8[8:1]/5-8[8:1],,,,1,2,3,8,
{8}7,6,1,8,4,3,2,5,
{8}6,7,1/8,,3,3,7,7,
{8}1^4[8:1],1,,,1,7,3,5,
{8}4-1[8:1]/6-1[8:1],,,,8,7,6,1,
{8}2,3,8,1,5,6,7,4,
{8}3,2,1/8,,3/7,,2/6,,
{8}5/1^6[8:1],,,,,4/7,4/7,,
{8}2-5[8:1]/5-8[8:1],,,,1,8,7,1,
{8}2,3,5,4,8,7,6,8,
{8}1,2,3/4,,5h[4:1]/6h[4:1],,,7h[4:1]/8h[4:1],
{8},,1h[4:1]/2h[4:1],,,3/4,,5/6,
{8},4/8,4qq1[4:3]/8qq5[4:3],,,,,,
{8},,,,6-8[8:1],,4,4-2[8:1],
{8},5,5-1[8:1],,3h[8:9],,,,
{8},,,,,4,2/5,6,
{16}4/7,,8,,1b/7b,,,,2,3,4,,,,,,
{8}6h[8:3],,,4h[8:3],,,2h[8:3],,
{16},,8h[8:3],,,,,,7,6,5,,,,4h[8:3],,
{8},,2h[8:3],,,8h[8:3],,,
{16}7,,4/5,,3/6,,,,8,7,6,,,,,,
{8}1h[8:3],,,3h[8:3],,,5h[8:3],,
{16},,7h[8:3],,,,,,8,1,2,,,,,,
{8}8h[8:3],,,6h[8:3],,,4h[8:3],,
{16},,2h[8:3],,,,,,1,8,7,,,,,,
{16}4/5h[2:3],,,4,,,6,,,6,,,3,,,3,
{16},,7,,,7,,,2,3,4,,,,,,
{16}8/1h[2:3],,,8,,,2,,,2,,,7,,,7,
{16},,3,,,3,,,6,5,4,,,,,,
{16}6/5h[2:3],,,6,,,4,,,4,,,7,,,7,
{16},,3,,,3,,,8,7,6,,,,,,
{16}2,,,3,,,4,,,5,,,6,,,7,
{16},,1/8,,1/8,,,,5/6h[4:3],,,4,,,3,,
{16},2,,,1,,,,4/3h[4:3],,,5,,,6,,
{16},7,,,8,,,,4/5h[8:9],,,6,,,3,,
{16},7,,,2,,,8,,,1,,,3/7,,,
{1}1bw5[2:1],
{1}2h[1:2],
{2}1,8,
{1}7h[1:2],
{2}6,5,
{1}4h[1:4],
{2}3,2,
{2}1,8,
{2}7,6,
{2}5,3/6,
{2}2/7,1b/8b,{1},
{4}3/8,2/7,6/1^4[8:1],,
{16}7,,6,,5,,3,4,3,,2,,1/8,,,,
{12}2,4,2,7,5,7,1,8,1,2b/7b,,,
{8}3,4,2/5,6,5,4/7,3,2,
{8}8-4[8:1],8,3^8[8:1],3,5^8[8:1],5,,,
{16}2,,3,,4,,6,5,6,,4,,3,,2,,
{8}8,6,1,3,4-1[8:1]/5-8[8:1],,,,
{8}2,1,3/8,7,8,1/6,5,4,
{8}5h[4:1]/7h[4:1],,,2h[4:1]/4h[4:1],,,1/8,,
{4}3b-5[8:1],2b-6[8:1],1b-7[8:1],,
{16},,6,5,6,,4/7,,2/5,,3,4,3,,2/5,,
{8}4/7^4[8:1],,1^4[8:1],1,,6,7,8,
{8}1h[4:1]/5h[4:1],,,3h[4:1]/7h[4:1],,,1pp2[4:1]/5pp6[4:1],,
{16},,,,,,7,8,7,,1/6,,2/5,,3,,
{8}4,2/5,3,4/7,6,5,4qq3[4:1]/8qq7[4:1],,
{16},,,,,,2,1,2,,3/8,,4/7,,6,,
{8}5,4/7,6,2/5,3,4,1b/5b,,
{16}6h[8:1]/8h[8:1],,,6h[8:1]/8h[8:1],,,6h[8:1]/8h[8:1],,,6h[8:1]/8h[8:1],,,6b/8b,,1/8,,
{16}1h[8:1]/3h[8:1],,,1h[8:1]/3h[8:1],,,1h[8:1]/3h[8:1],,,1h[8:1]/3h[8:1],,,1b/3b,,,,
{16}1h[8:1]/8h[8:1],,,6h[8:1]/8h[8:1],,,1h[8:1]/8h[8:1],,,1h[8:1]/3h[8:1],,,1h[8:1]/8h[8:1],,,5h[8:1]/8h[8:1],
{16},,1h[8:1]/8h[8:1],,,1h[8:1]/4h[8:1],,,{2}1b-5[4:5]/8b-4[4:5],{1},,
E

MASTER

(177){12}6,7,8,4,3,2,5h[4:1]/1>5[6:1],,,1,,,
{12}6,7,8,4,3,2,5,6,7,3,2,1,
{12}6,7,8,4,3,2,5h[4:1]/1>5[6:1],,,1,,,
{12}6,7,8,4,3,2,5,6,7,3,2,1,
{12}6,7,8,4,3,2,5h[4:1]/1>5[6:1],,1,1,,,
{12}6,7,8,4,3,2,5,6,7,3,2,1,
{12}4,5,6,3,2,1,5,6,7,4,3,2,6,7,8,1,2,3,4qq8[2:1],,,,,,
{2},
(182){12}8,7,6,1,2,3,5^8[8:1],,1,1,2,3,8,7,6,2,3,4,1,8,7,3,4,5,8,7,6,1,2,3,5^8[8:1],,1,1,2,3,8,7,6,2,3,4,1,8,7,6,5,4,1,2,3,8,7,6,4^1[8:1],,
8,8,7,6,1,2,3,7,6,5,8,1,2,6,5,4,1,2,3,5,6,7,2,3,4,6,7,8,3,4,5,7,8,1,4,5,6,7,8,1,2-6[8:1],,,2/5-1[8:1],,,
{4}5/3-7[8:1],3/4-8[8:1],4/2-6[8:1],2/5-1[8:1],
{4}5/3-6[8:1]*-8[8:1],3,7-3[8:1],7/4-8[8:1],
{4}4/6-2[8:1],6/5-1[8:1],5/7-3[8:1],7/4-8[8:1],
{8}4/6-1[8:1]*-3[8:1],,6,,2/4,2/4,3/5,3/5,
{8}4/6,4/6,5/7,5/7,6/8,6/8,1/7,1/7,
{16}2/8,,2/8,,1/3,,1/3,,4,5,4,5,3,6,3,6,
{16}2,7,2,7,1,8,1,8,{32}1,2,3,4,5,6,7,8,1qq5[8:3],2,3,4,5,6,7,8,
{16}1,,,,,,,,1h[8:1]/3h[8:1],,,6h[8:1]/8h[8:1],,,2h[8:1]/4h[8:1],,
{16},5h[8:1]/7h[8:1],,,8h[4:3],,,,3b,,,,2b,,,,
{16}1bw5[8:1],,,,1,,,,3,,2,,1,,7,8,
{16}7,,4/5,,8/2^5[8:1],,,,,,1,8,7,6,5,,
{16}3h[8:3],,1,8,7,,5,,3,,4,,5/7,,6,,
{16}5,,2/4,,3>7[4:1],,4,,7,6,5,4,3,,8,1,
{16}2,,4/5,,2/7,,,,6,,7,,8,,2,1,
{8}2,3/4,4/5,5/6,8h[4:1],6,1h[4:1],3,
{16}8h[4:1],,5,4,3,,1/8,,7,,6,,4/5,,2,,
{16}3,,4/5,,7,,6,,5h[4:1],,4,3,2,,5h[4:1],,
{16}6,7,8,,4/5,,,,3b/5h[2:1],,,,2b,,,,
{16}1bw5[8:1],,,,1,,,,,,1,8,7,6,5,,
{16}2/3,,5,4,5,,6/7,,5/8,,,,1/8,,2,,
{8}3,1/8,7,6,4/5h[4:1],3,2,5/4h[4:1],
{16}6,,7,,3/8,,,,1b/2b^7[4:1],,,,,,6,5,
{8}4-8[8:1],3,4,,2,1/3,,4/8,
{8},5/7,6<2[4:1],,2<4[2:1],3,4,3,
{16}2,,1,,8,,7,,4/5,,2,,1,,7,8,
{8}7,1/8,2b/7b,,5h[12:11],,,,,,
{24},,,,7,8,{8}1,6,2,7,
{8}3pp5[8:1],8,,,{24}8,7,6,,,,{8},,
{8}3-8[8:1],,,1-5[8:1],,,4^7[8:1],,
{8},8-2[8:1],,,6^4[8:1],,,1^3[8:1],
{8},,4^6[8:1],,,7<3[8:3],,,
{8},,,,{24}8,1,2h[12:23],,,,,,,,,,
{16}3-8[16:1],,,3,,,7-4[16:1],,,7,,,3-7[16:1],,,3,
{16},,8-4[16:1],,,8,,,{24}5,6,7h[12:23],,,,,,,,,,
{16}6-1[16:1],,,6,,,2-5[16:1],,,2,,,6-2[16:1],,,6,
{16},,1-5[16:1],,,1,,,{24}4,3,2h[12:23],,,,,,,,,,
{16}3-8[16:1],,,3,,,7-4[16:1],,,7,,,3-7[16:1],,,3,
{16},,8-4[16:1],,,8,,,{24}5,6,7h[48:17],,,,{4},
{16}1h[8:1]/7h[8:1],,,2h[8:1]/7h[8:1],,,3h[8:1]/7h[8:1],,,4h[8:1]/7h[8:1],,,5h[8:1]/7h[8:1],,,6h[8:1]/7h[8:1],
{16},,7h[8:1]/8h[8:1],,,1h[8:1]/7h[8:1],,,{24}2,3,4h[12:23],,,,,,,,,,
{16}5-1[16:1],,,5,,,2-6[16:1],,,2,,,7-2[16:1],,,7,
{16},,3-8[16:1],,,3,,,{24}7,6,5h[48:17],,,,{4},
{16}2h[8:1]/5h[8:1],,,5h[8:1]/8h[8:1],,,2h[8:1]/5h[8:1],,,5h[8:1]/8h[8:1],,,5h[8:1]/7h[8:1],,,5h[8:1]/6h[8:1],
{16},,3h[8:1]/5h[8:1],,,2h[8:1]/5h[8:1],,,4h[8:1]/7h[8:1],,,1h[8:1]/4h[8:1],,,4h[8:1]/7h[8:1],,
{16},4/1^4[16:1]*^6[16:1],,,1b,,,,2h[8:1]/5h[8:1],,,5h[8:1]/8h[8:1],,,2h[8:1]/5h[8:1],,
{16},5/8^3[16:1]*^5[16:1],,,8b,,,,4h[8:1]/7h[8:1],,,1h[8:1]/4h[8:1],,,4h[8:1]/7h[8:1],,
{16},4h[8:1]/6h[8:1],,,1h[8:1]/4h[8:1],,,2h[8:1]/4h[8:1],,,4h[8:1]/7h[8:1],,,1/4w8[16:9],,,
{1}4b,
{12}6,7,8,4,3,2,5h[4:1]/1>5[6:1],,,1,,,6,7,8,4,3,2,5,6,7,3,2,1,6,7,8,4,3,2,5h[4:1]/1>5[6:1],,,1,,,6,7,8,4,3,2,5,6,7,3,2,1,6,7,8,4,3,2,
5h[4:1]/1>5[6:1],,1,1,,,6,7,8,4,3,2,5,6,7,3,2,1,4,5,6,3,2,1,5,6,7,4,3,2,6,7,8,5,4,3,5,6,7,4,3,2,5,4,3,2,1,8,4,3,2,5,4,3,
{12}6,5,4,3,2,1,{2}8h[1:2],{1},
{4}3b,2b,1bw5[12:1],1,
{16}3,,2,,1,,7,8,7,,4/5,,2/8,,,,
{12}5/8,7,6,2/5,4,3,2/7,1,{24}8,,4/7,,,2,,,
{8}3,4,5/7,6,5,2/4,3>7[4:1],4,
{16}7,6,5,4,3,,8,1,2,,4/5,,1/6^1[8:1],,,,
{16}1,2,3,4,5,,2,1,2,,3/4,,5/6,,7/8,,
{16}1/2h[4:1],,4,,8h[4:1],,5,,1h[4:1],,4,5,6,,1/8,,
{8}2,3,4/5,6,7,4/5,3,2,
{16}1h[4:1],,2,3,4,,1h[4:1],,8,7,6,,1/8,,,,
{16}3b/8,,7,,2b/6,,5,6,7/1bw5[8:1],,8,,1,,,,
{16},,1,8,7,6,5,,2/3,,5,4,5,,6/7,,
{8}5/8h[4:1],,1,2,3,1/8,7,6,
{8}4h[4:1]/5h[4:1],,,6h[4:1]/8h[4:1],,,1h[8:1]/3h[8:1],,
{16}8b/7b^2[4:1],,,,,,3,4,5-1[8:1],,6,,5,,,,
{8}7,6/8,,2/4,,3,3<7[4:1],,
{16}8h[4:3],,,,,,1,2,3,,4,,4s8[4:1],,,,
{8}5,6,,1/7,,2/6,4b/8b,,
{16}6h[8:1]/8h[8:1],,,2h[8:1]/8h[8:1],,,5h[8:1]/8h[8:1],,,8h[8:1]/3-7[16:1],,,3/8,,8,,
{16}7h[8:1]/8h[8:1],,,1h[8:1]/8h[8:1],,,6h[8:1]/8h[8:1],,,2-5[16:1]/8-5[16:1],,,2b/8b,,,,
{16}1h[8:1]/7-4[16:1],,,7/1h[8:1],,,1h[8:1]/2-5[16:1],,,2/1h[8:1],,,1h[8:1]/6-2[16:1],,,6/1h[8:1],
{16},,1h[8:1]/3-7[16:1],,,3/1>8[16:15],,,{1}1,,
E

Re:MASTER


  • MASTERの数値が異常な部分が見受けられまして、自力で修正できそうなので直します -- MIKA (2022-08-19 13:49:38)
  • EXPERT譜面/MASTER譜面の一部リズムを修正しました。追加修正等ありましたらよろしくお願いします。 -- Sugar (2026-03-15 15:36:46)
名前:
コメント:

タグ:

+ タグ編集
  • タグ:
最終更新:2026年10月04日 09:33