アットウィキロゴ

アポカリプスに反逆の焔を焚べろ

アーティスト cosMo@暴走AlterEgo

BPM BASIC ADVANCED EXPERT MASTER Re:MASTER
222 7 8 12 14 -

EXPERT MASTER Re:MASTER
譜面制作者 シチミヘルツ サファ太 -

BASIC


ADVANCED


EXPERT

(222)
{2}7h[2:7],B5,E4,C,E3,B8,E2,B5/C,
2h[2:7],B4,E6,C,E7,B1,E8,B4/C,
7x,7x/B5,7x/E4,7x/C,7x/E3,7x/B8,7x/E2,7x/B5/C,
2x,2x/B4,2x/E6,2x/C,
{1}2h[2:1]/7h[2:1],1-4[2:1]/8-5[2:1],
{4}28,28,16,16,{8}46,,5,4,36,,25,,
1,1,18,,7,7,57,,2,2,24,,3x/7x,,8x,,
{4}17,17,38,38,
{16}2x/4x,,,4x/5x,,,5x/7x,,{4}5x/7x,18,
2h[4:1],4h[4:1],5h[4:1],7h[4:1],
8h[4:1],4,2b/6b,,17,17,38,38,
{8}35,,4,5,36,,47,,8,8,18,,2,2,24,,7,7,57,,2x/6x,,1x,,
{4}28,28,16,16,{16}5x/7x,,,4x/5x,,,2x/4x,,{4}2x/4x,18,
{8}7,7,1,1,8,8,2,2,8,8,18,,2b/6b,,,,
{8}7,,7^4[8:3],,,3,3,,2,,2^5[8:3],,,6,6,,
8,,8^5[8:3],,,2,2,,1,,1^4[8:3],,,7,7,,
6,,7^2[8:3],,,4,4,,3,,2^7[8:3],,,5,5,,
6,,7^2[8:3],,,4,4,,1x/8x,,24,24,,57,5b/7b,,
{4}17,28,35,46,17,28,35,46,78,56,34,12,78,56,34,12,
{8}8,8,7,7,6,6,5,5,4,4,3,3,2,2,1,1,
8b,8b,8b,8b,8b,8b,8b,8b,1b,1b,1b,1b,1b,1b,1b,1b,
{2}2b/7b,E1,E2,E3,E4,E5,E6,E7,
C,B8/E1,B7/E8,B6/E7,B5/E6,B4/E5,B3/E4,B2/E3,
{4}7h[1:2],8,8,8,8,8,8,8,2h[1:2],1,1,1,1,1,1,1,
6h[1:1],5,5,5,3h[1:1],4,4,4,7h[1:1],5,5,5,2h[1:1],4,4,4,
6h[2:1],5,3h[2:1],4,7h[2:1],8,2h[2:1],1,
{6}8x,7x,6x,5x,4x,3x,
(333)
{4}2x,1x,8x,7x,{1}6qq8[4:7],,{2}1x,1x,
{4}8x,8x,2b/7b,,12,3,12,3,
24,35,4x/6x,,7,7-4[8:3],2,2-5[8:3],
8,8-4[8:3],1b,,78,6,78,6,
{16}4x,,,4x,,,4x,,{4}3x/5x,,
2,2-5[8:3],7,7-4[8:3],1,1,3b/7b,,78,6,78,6,57,46,3x/5x,,
2,2-5[8:3],7,7-4[8:3],1,1-5[8:3],8b,,
12,3,12,3,{16}5x,,,5x,,,5x,,{4}4x/6x,,
{4}78,78,18,18,12,12,3b/8b,,
6,5,4,3,{8}2h[4:1],,8,8,,1,1,,
{4}3,4,5,6,{8}7h[4:1],,1,1,,8,8,,
{4}6,5,4,3,{8}2h[4:1],,8,8,,1,1,,
7x,6x,5x,4x,1x,2x,3x,4x,
{2}8-5[4:1],1b,{4}2,1,8,7,{8}56,,4,4,,5,5,,
{4}7,8,1,2,{8}34,,5,5,,4,4,,
{4}2,2,18,18,{8}27,,1,1,,8,8,,
{1}3>5[4:3]/7h[1:1],{2},2b/6b,
{4}E2,B8,E4,B5,B1,E8,B4,E6,E3,E2,E1,E8,E7,E6,E5,E4,
{8}E1,B8,B7,E7,E3,B3,B4,E5,
E8,B7,B6,E6,E2,B2,B3,E4,
E7,B6,B5,E5,E1,B1,B2,E3,{1}Ch[2:1],
{4}1x,1x,1x/8x,1x/8x,7,7,56,56,4,4,35,35,2,18,2b/7b,,
2h[4:1],1h[4:1],3h[4:1],4h[4:1],8h[4:1],7h[4:1],5h[4:1],6h[4:1],
1h[4:1],2h[4:1],3h[4:1],4h[4:1],5h[4:1],6,2b/7b,,
{1}4qq8[4:11]/5pp1[4:11],,,,
{8}1x,2x,3x,4x,5x,6x,7x,8x,1x,2x,3x,4x,5x,6x,7x,8x,
{1}1x<4[1:1],{2},8b,
{4}12,3,78,6,24,35,4x/6x,,
43,3-8[8:3],7,7-4[8:3],
1,1-5[8:3],8b,,78,6,12,3,
{16}5x/6x,,,5x/6x,,,5x/6x,,{4}4x/7x,,
{4}2,2-7[8:3],6,6-3[8:3],1,1,2b/6b,,
78,6,12,3,57,46,3x/5x,,
6,6-1[8:3],2,2-5[8:3],8,8-4[8:3],1b,,
12,3,78,6,
{16}3x/4x,,,3x/4x,,,3x/4x,,{4}2x/5x,,
{4}78,78,18,18,12,12,3b/8b,,
{2}1pp4[4:3]/5pp8[4:3],,,2b/6b,
{8}3,4,3,4,2b,,,,6,5,6,5,7b,,,,
1,8,1,8,1,8,1,8,2,2,7,7,1,1,8,8,
(222)
{1}2bw6[1:6],,,,,,,,,
E

MASTER

(222)
{2}4h[2:1]/5b,3h[2:1],2h[2:1],1>6[4:5],8,7,7,47,
4x/5h[2:1],6h[2:1],7h[2:1],8V63[4:5],1x,2,2x,4h[2:1]/5,
{4}5,5,35,5,5/B1/B2,5,35,5,45,4,46,4,4/B7/B8,4,46,4,
4x/5x,5,35,5,5/B1/E2,5,35,5,{2}Ch[1:1]/5,,B1/B2/B7/B8/E2/E8,B3/B4/B5/B6/E4/E6,
{8}7,78,{4}1/6-1[8:1],2-6[8:1],8,5x/7x,{8}12,38,{2}4-1[8:1]/7-3[8:1],
{4}8b,{16}7,5,7,,3,5,3,,6,5,6,5,8,1,8,1,8<2[8:3],1,8,1,{2}8b,
{4}1-5[8:1],5-1[8:1],7-3[8:1],2hx[4:1],{16}1x,,,2x/4x,,,5x/6x,,{4}4x/7x,16,
{12}7,6,5,1,2,3,E1,E8,E7,E3,E4,E5,{4}Ch[4:1],,18,3x/6x,
{8}2,12,{4}3-8[8:1]/8,7-3[8:1],1,2x/4x,{8}78,16,{2}2-6[8:1]/5-8[8:1],
{4}1b,{16}2,4,2,,6,4,6,,3,4,3,4,1,8,1,8,1>7[8:3],8,1,8,{2}1b,
{4}8-4[8:1],4-8[8:1],2-6[8:1],7hx[4:1],{16}8x,,,5x/6x,,,3x/4x,,{4}2x/5x,4x/7x,
{12}3b,4,3,5,4,5,2b,4,2,6,4,6,{16}1b,2,3,4,5,6,7,8,{4}16,3x/7x,
{8}4^1[4:1],,6,6,,7,78,,5/6^1[4:1],,4,4,,2,24,,
C,,E8,B5/E6,,E2,B4/E4,,E1,C,E5,B2/B3/B6/B7,,8,8,,
1/7^4[4:1],,3,3,,2,28,,1^4[4:1]/5,,6,6,,7,57,,
E3/E7/C,,E6,B8/E8,,E4,B1/E2,,8x,,56,47,,34,2b/5b,,
{4}4,46,4/8-4[4:1],{8}3,3,{4}3,35,3/6^3[4:1],{8}2,2,
{4}2x,12,2/6^1[4:1],{8}3,3,{4}3h[4:1],4h[4:1],5,46,
{8}35,3,3,3,37,7,7,7,27,2,2,2,28,8,8,8,
{16}2,4,2,4,3,5,3,5,4,6,4,6,1,8,1,8,
1,2,3,4,7,6,5,4,2,3,4,5,6,7,8,1,
{1}2b>6[1:1]/6b,6p2[4:3],8<3[1:1],3q8[4:3],
{2}1xV36[1:1],7,6V41[4:3],8,7x-2[8:5],3,3x-6[8:5],7,
{4}7x,6,5,4,4/E5,3,2,1,1x/C,8,7,6,6/E1,5,4,3,
3/E6,3,3/C,3,3/E2,3,3/C,3,6/E4,6,6/C,6,6/E8,6,6/C,6,
7x/E5,7,7x/C,7,2x/E1,2x/E8,2x/E7,2x/E6,
{6}2h[6:1],3h[6:1],4h[6:1],8h[6:1],7h[6:1],6,
{12} 1,8,2,7,3,6,4,5,
(27.75)
{12} Ch[6:1],
(333)
{1},
{16} E7,E6,E5,E4,E3,E2,E1,E8,7x,6x,5x,4x,3x,2x,1x,8x,7x,6x,5x,4x,3x,2x,1x,8x,
{4} 3b/7b,,27,3h[4:1]/4,2,12,38,
{8} 6,5,
{4} 7h[4:1],8,1-5[8:1]/6,7-3[8:1],4,2h[4:1],
{16} 1,8,7,6,
{4} 5,3x/8x,,27,5/6h[4:1],7,18,
{16} 2xh[16:3],,,4xh[16:5],,,3x,,
{4} 3x,27,
{16} 1x,2,3,4,6h[4:1],,,,2x,3,4,5,7h[4:1],,,,3x,4,5,6,7,8,1,2,
{4} 3b/7b,,78,1/6h[4:1],5,38,24,
{8} 6,5,
{4} 7,12,8-4[8:1]/3,2-6[8:1],5,7h[4:1],
{16} 8,1,2,3,
{4} 4,1x/6x,,4/6h[4:1],8,12,34,
{16} 6xh[16:3],,,5xh[16:3],,,7x,,
{4} 7x,17,
{16} 8x,7,6,5,3h[4:1],,,,7x,6,5,4,2h[4:1],,,,6,5,4,3,2,1,8,7,
{4} 2b/6b,,1x/8x,27,
{8} 6,5,7,,3h[4:1],,4,3h[4:1],,8,18,,2x/5x,,34,,7,8,6,,2h[4:1],,1,2h[4:1],,4,34,,2x/7x,,34,,6,5,8,,3h[4:1],,4,3h[4:1],,8,
{4} 28,1-5[8:1],7-4[8:1],3-8[8:1],6x<4[2:1],4,,1b,,7x/8x,16,
{8} 3,4,2,,6h[4:1],,5,6h[4:1],,1,17,,38,,45,,7,8,5,,2x,4,2,6x,4,6,1xh[4:1],,8,,27,,6,4,8,,3h[4:1],,4,2,,78,
{4} 78,1-5[8:1],6-1[8:1],3-6[8:1],7>5[2:1],5x,,1b,,27,
{8} 6,6,4,4,5,5,3,3,4,4,
{4} 2,25,1-5[8:1]/6,6,2-4[8:1]/6,6,1-5[8:1]/6,6,8,28,7-4[8:1]/3,3,8-4[8:1]/3,3,1-5[8:1]/3,3,3,3x/8x,
{8} 1,1,3,3,5,5,7,7,
{4} Ch[2:1],,8b,,27,
{8} 1,1,3,3,5,5,7,7,5,5,
{4} 6,47,3/8-4[8:1],3,3/7-5[8:1],3,3/8-4[8:1],3,3,17,6/2-5[8:1],6,6/1-5[8:1],6,6/8-4[8:1],6,6x,1x/6x,
{8} 2,4,3,5,4,6,5,7,
{16} 1,8,1,8,1,8,1,8,
{2} 1b,
{1} Cf,,,
{2} 8,18,
{16} 3x/7x,6,5,4,3,2,1,8,7,6,5,4,3,2,1,8,3x/7x,4,5,6,7,8,1,2,3,4,5,6,7,8,1,2,
{2} 3b/Ch[1:1],,,
{8} 1,8,
{4} 1,78,1/6h[4:1],5,38,24,
{8} 6,5,
{4} 7h[4:1],8,1-5[8:1],7-3[8:1],4-8[8:1],8x,
{16} 17,26,35,4,
{4} ,3b/8b,,5/7h[4:1],8,12,47,
{16} 3h[16:3],,,4h[16:3],,,2,,
{4} 2,1x/8x,
{16} 2x,3,4,5,7h[4:1],,,,3x,4,5,6,8h[4:1],,,,E5,E6,E7,E8,E1,E2,E3,E4,
{2} C,
{8} 7-5[8:1],7,1-3[8:1],1,7-5[8:1],7,1-3[8:1],1,7-5[8:1],7,1x,,Cf,,,,2-4[8:1],2,8-6[8:1],8,2-4[8:1],2,8-6[8:1],8,2-4[8:1],2,8x,,Cf,,,,1-4[8:1],1,8-5[8:1],8,1-4[8:1],1,8-5[8:1],8,1-4[8:1],1,8x,,Cf,,,,
{16} 8x/Cf,7,6,5,,,,,2x/Cf,3,4,5,,,,,7x/Cf,6,5,4,3,2,1,8,
{2} 7b,
{1} Ch[1:1],,
{16} 1,2,3,4,1-5[8:1],8,7,6,Cf,,,,,,,,8,7,6,5,8-4[8:1],1,2,3,Cf,,,,,,,,2x,3,4,5,1x,2,3,4,7x,6,5,4,8x,7,6,5,E2,B2,B3,E4,E8,B7,B6,E6,8x,7,6,5,1x,2,3,4,
(222)
{1}Cf,,,{4}E4,E3,E2,E1,E8,E3/E7,
{8}4,4,5,5,{16}3,6,3,6,2,7,2,7,1,8,2,7,1-5[8:1],8,2,7,
{1},,,,,,,,,
E

Re:MASTER


  • EXPERTの全体を改訂しましたー。 -- 嵐雅 (2021-01-20 14:27:45)
  • MASTER譜面のノーツの配置ミス、SLIDEの速度の修正を行いました。 -- けもがみ (2026-02-11 21:32:07)
名前:
コメント:

タグ:

+ タグ編集
  • タグ:
最終更新:2026年04月05日 12:52