|
EXPERT |
MASTER |
Re:MASTER |
| 譜面制作者 |
小鳥遊さん |
玉子豆腐 |
- |
EASY
BASIC
ADVANCED
EXPERT
(142)
{4}3,4,1,3,3,4,3,3,
1,1,4,4,6,3,6,3,
3/7h[4:15],4,1,3,
3,4,3,3,1,1,4,4,
6,3,6,3,23,45,18,23,
23,45,23,23,18,18,45,45,
{1}1h[4:3]/8h[4:3],
{4}18,27,36,45,23,45,18,23,
23,45,23,23,18,18,45,45,
67,23,67,23,
2h[8:1]/3h[8:1],4h[8:1]/5h[8:1],1h[8:1]/8h[8:1],2h[8:1]/3h[8:1],
2h[8:1]/3h[8:1],4h[8:1]/5h[8:1],2h[8:1]/3h[8:1],2h[8:1]/3h[8:1],
1h[8:1]/8h[8:1],1h[8:1]/8h[8:1],4h[8:1]/5h[8:1],4h[8:1]/5h[8:1],
{1}6/7>6[2:1],
{4}3h[4:1],4,7h[4:1],2,
4h[4:1],3,6h[4:1],8,
2h[4:1],3,5h[4:1],6,
4h[4:1],1,48,26,
1h[4:1],4,8h[4:1],2,
5h[4:1],4,2h[4:1],3,
1h[4:1],8,5h[4:1],4,
{1}1b,
{4}78,16,25,34,
{8}8-5[4:1],1,2,3,{16}4h[16:3],,,3h[16:3],,,2,,
{8}1-4[4:1],8,7,6,{16}5h[16:3],,,6h[16:3],,,7,,
{8}8-5[4:1],1,2,3,{16}4h[16:3],,,3h[16:3],,,2,,
{8}1-4[4:1],8,7,6,5-2[8:1]*-8[8:1],,,,
4^1[4:1],5,6,7,{16}8h[16:3],,,7h[16:3],,,6,,
{8}5^8[4:1],4,3,2,{16}1h[16:3],,,2h[16:3],,,3,,
{8}4^1[4:1],5,6,7,{16}8h[16:3],,,7h[16:3],,,6,,
{4}45,,1b,8b,
{16}1,1,,28,,37,,4/6h[16:3],,,5,,47,,,,
8,8,,17,,26,,3h[16:3]/5,,,4,,25,,,,
4,4,,35,,26,,1/7h[16:3],,,8,,16,,,,
5,5,,46,,37,,2/8w4[8:1],{2},
{4}5,5,5,5,
5,5V38[4:1]*V72[4:1],,,
4,4,4,4,
4,4V27[4:1]*V61[4:1],,,
{2}1-5[4:1],8-4[4:1],
2-5[4:1],7-4[4:1],
{4}1,2,3,4,
{2}4b/5b,
{4}12,38,47,56,
4h[4:7]/8,7,6,5,
{8}3,3,5,5,3,3,5h[1:2],,
{4}4,3,2,1,
{8}8,8,2,2,1,1,1h[1:2],,
{4}5,6,7,8,
{8}2,2,8,8,2,2,8h[4:7],,
{4}2,6,3,5,
{4}4h[2:1],,,2b/6b,
{8}4h[2:1]/8h[2:1],,,,,,,37,
2h[2:1]/6h[2:1],,,,,,15,26,
3h[2:1]/7h[2:1],,,,,48,37,26,
1h[4:1]/5h[4:1],,,,36,36,{16}4,5,4,5,
{4}4,34,5,56,
{8}3,3,24,,6,6,57,,
2,2,1,1,8,8,7,7,
18,18,27,27,{16}1,8,1,8,1,8,1,8,
{8}2-5[4:1],1,8,7,{16}6h[16:3],,,7h[16:3],,,8,,
{8}7-4[4:1],8,1,2,{16}3h[16:3],,,2h[16:3],,,1,,
{8}2-5[4:1],1,8,7,{16}6h[16:3],,,7h[16:3],,,8,,
{8}7-4[4:1],8,1,2,{2}3^6[8:1]*^8[8:1],
{8}6^1[4:1],5,4,3,{16}2h[16:3],,,3h[16:3],,,4,,
{8}3^8[4:1],4,5,6,{16}7h[16:3],,,5h[16:3],,,5,,
{8}6^1[4:1],5,4,3,{16}2h[16:3],,,3h[16:3],,,4,,
{4}45,,1b,8b,
2/8-5[8:1],4-1[8:1],6-3[8:1],7-2[8:1],
8-5[8:1],7-2[8:1],6-3[8:1],4-1[8:1],
5-8[8:1],1-4[8:1],8-5[8:1],3-6[8:1],
7-2[8:1],3-6[8:1],7-2[8:1],6-3[8:1],
8-5[8:1],4-1[8:1],6-3[8:1],7-2[8:1],
8-5[8:1],7-2[8:1],6-3[8:1],4-1[8:1],
5-8[8:1],1-4[8:1],8-5[8:1],3-6[8:1],
7-2[8:1],3-6[8:1],7-2[8:1],3,
{2}2h[2:1],1b,
{1},,,,,,,,,,
E
MASTER
(142)
{4}4,4,5,5,6,6,7,7h[2:7],
2,4,1,2,2,4,3,3,8,8,5,5,6,3,7,2,
23,45,18,23,23,45,23,23,18,18,45,45,67,23,27,3/6-3[8:1],
1-4[8:1],5-8[8:1],6-3[8:1],7-2[8:1],8-5[8:1],7-2[8:1],6-3[8:1],5-8[8:1],
4-1[8:1],8-5[8:1],1-4[8:1],5,{1}1h[2:1]/8h[2:1],
{8}5/6h[4:1],{24}2,3,4,{8}5h[4:1],{24}1,8,7,{8}6,56,4/7-2[8:1],38,
{4}1-4[8:1],5-8[8:1],6-3[8:1],7-2[8:1],8-5[8:1],7-2[8:1],6-3[8:1],5-8[8:1],
4-1[8:1],8-5[8:1],1-4[8:1],3-6[8:1],7-2[8:1],3-6[8:1],7-2[8:1],6-3[8:1],
1-4[8:1]/6,1/5-8[8:1],5/6-3[8:1],6/7-2[8:1],
7/8-5[8:1],7-2[8:1]/8,6-3[8:1]/7,5-8[8:1]/6,
4-1[8:1]/5,4/8-5[8:1],1-4[8:1]/8,1/3-6[8:1],3/7p6[4:1],6>8[4:1],8,6-3[8:1],
1-4[8:1],6h[4:1],4bv3[8:1],4-7[8:1]/5-8[8:1],
4-1[8:1]*p8[8:1],4-2[8:1],4/5qq3[8:1]*-7[8:1],5-8[8:1],
4-1[8:1],8-6[8:1],4v5[8:1],4-1[8:1]*p8[8:1],
4V68[8:1],4qq2[8:1]*-8[8:1],4v6[8:1],7-2[8:1],
1-4[8:1],5-8[8:1],7-2[8:1],5v6[8:1],
4-7[8:1]/5-2[8:1],5-1[8:1]*v8[8:1],5qq3[8:1]*-7[8:1],5-8[8:1],
4-1[8:1],8-5[8:1],1-4[8:1]/8-3[8:1],18,{1}2b/6b,
{8}3h[4:1]/4,{24}7,6,5,{8}4h[4:1],{24}8,1,2,{8}3,34,25,16,
78,7,68,2,1/3h[4:1],{24}7,6,5,{8}4,25,
68,1,13,7,6h[4:1]/8,{24}2,3,4,{8}5,47,
13,8,68,2,1/3h[4:1],{24}7,6,5,{8}4,25,
78,6,12,3,78,{16}5,5h[16:3],{8},4b,
8,1,13,7,6h[4:1]/8,{24}2,3,4,{8}5,47,
13,8,68,2,1/3h[4:1],{24}7,6,5,{8}4,25,
68,1,13,7,6h[4:1]/8,{24}2,3,4,{8}5,47,
5/6h[8:3],7,8,1,{16}1-3[16:1],1-4[16:1],1-5[16:1],1-6[16:1],,,,,
3,3,,{8}52,78,16,{16}3^6[8:1],4,{8}2h[8:1],3,{16}1,
1,8,,{8}27,45,36,{16}2,4,3,5,4,6,5,
7,8,,{8}16,34,25,{16}7^2[8:1],8,{8}6h[8:1],7,{16}5,
5,4,,{8}27,45,18,{16}12,38,47,,78,16,25,
{4}3,3,4,4,5,5>1[4:1],1q2[4:1]*^7[8:1],,
6,6,5,5,4,4<8[4:1],8^2[8:1]*p7[4:1],,
3,34,6,56,3,24,6,57,4,35,26,1^4[8:1]/7[8:1],,,
{8}4h[4:1]/5,{24}8,7,6,{8}5h[4:1],{24}1,2,3,{8}4,45,3-8[8:1]/6,7-2[8:1],
3-6[8:1],7-4[8:1],3-8[8:1],7-2[8:1],3<1[8:1],7,3,,
6-8[8:1],1,6-1[8:1],2,6-2[8:1],3,6-1[8:1]*-3[8:1],4,
{4}6-4[8:1],6/7-1[8:1]*-3[8:1],7-4[8:1],7,
{8}8-3[8:1]*-5[8:1],8-4[8:1],,,2,34,2^4[8:1]/5<1[8:1],6,
{4}2v5[8:1]/5v2[8:1],2^4[8:1]/5<1[8:1],25,3-7[8:1]/7-3[8:1],
3^6[8:1]/7^2[8:1],,{8}27,36,4z8[8:1]/5-8[8:1],36,
{4}4-7[8:1]/5-2[8:1],45,3-6[8:1]/7-2[8:1],37,
{8}1-4[8:1]/4-1[8:1],5-8[8:1]/8-5[8:1],,,,,4b/8b,,
1h[4:3]/5h[4:3],,,,,,,26,3h[8:5]/7h[8:5],,,,,,26,15,
4h[2:1]/8h[2:1],,,,,15,26,37,4h[2:1]/8h[2:1],,,,,48,{32}8,7,6,5,8,1,2,3,
{8}8b,5,1,6,2,7,3,48,1b/5b,5,1,6,2,7,3,48,1b/5b,5,1,62,3b/7b,8,4,15,
2b/6b,37,48,15,{16}1-3[16:1],1-4[16:1],1-5[16:1],1-6[16:1],,,,,
{8}4,3,24,6,5/7h[4:1],{24}3,2,1,{8}8,16,
24,5,57,3,2h[4:1]/8,{24}6,7,8,{8}1,38,
57,4,24,6,5/7h[4:1],{24}3,2,1,{8}8,16,
34,1,56,8,34,{16}1,1h[16:3],{8},8b,
34,5,57,3,2h[4:1]/4,{24}6,7,8,{8}1,38,
57,4,24,6,5/7h[4:1],{24}3,2,1,{8}8,16,
24,5,57,3,2h[4:1]/4,{24}6,7,8,{8}1,38,
1/2h[8:3],4,6,8,{16}8-2[16:1],8-3[16:1],8-4[16:1],8-5[16:1],,,,,
{4}3v4[8:1],5-8[8:1],2p3[4:1],3q2[4:1],8-5[8:1],4,1v2[8:1]/4v3[8:1],14,
3V58[8:1],1-4[8:1]*-6[8:1],1w5[8:1],,
2v5[8:1]/6v1[8:1],2-7[8:1]/6-3[8:1],2v5[8:1]/6v1[8:1],26,
3v4[8:1],5-8[8:1],2p3[4:1],3q2[4:1],8-5[8:1],4,1v2[8:1]/4v3[8:1],14,
3V58[8:1],1-4[8:1]*-6[8:1],1w5[8:1],,
2v5[8:1]/6v1[8:1],2-7[8:1]/6-3[8:1],2v5[8:1]/6v1[8:1],26,
7b-2[4:1],,1h[16:1],
{1},,,,,
E
Re:MASTER
- EXP追加!間違いあったら修正よろしくです! -- 三日月-MIKAZUKI- (2020-05-06 15:57:49)
- スライドの速さを少々訂正いたしました。 -- 三日月-MIKAZUKI- (2020-07-28 20:58:16)
- EXPERT大幅修正&MASTER追加。 -- 嵐雅 (2021-05-02 01:34:16)
- Line 10 の「1-4[8:1]/4」は間違っています。正しいのは「1-4[8:1]/6」です。 -- 刘天冉 (2024-09-19 01:43:50)
- 5^8[8:1]が間違いた。正しいは5<1[8:1]だよ -- DSF0 (2025-08-09 12:00:31)
最終更新:2025年08月09日 12:02