アットウィキロゴ

UniTas

アーティスト Masahiro "Godspeed" Aoki VS Kai

BPM BASIC ADVANCED EXPERT MASTER Re:MASTER
205 5 8 11+ 14 -

EXPERT MASTER Re:MASTER
譜面制作者 はっぴー シチミヘルツ -

BASIC


ADVANCED


EXPERT


MASTER

(205){8}
5/6h[4:1],,5,,5/7<5[4:1],5,,4,,3,3,,24,,3,,
4/3h[4:1],,4,,4/2>4[4:1],4,,5,,6,6,,75,,7,,
5/6h[4:1],,5,,5/7<5[4:1],5,,4,,3,3,,24,,1,,
42,,3,3,45,,6,6,47,8,8,27,1,1,3b/6b,,

2-4[8:1],4,4,,2-5[8:1],5,5,,2-6[8:1],6,6,,7,7,6,,75,,
7-5[8:1],5,5,,7-4[8:1],4,4,,7-3[8:1],3,3,,2,2,3,,42,,
1-7[8:1],7,7,,1-6[8:1],6,6,,1-5[8:1],5,5,,
{4}6^1[8:1],2-5[8:1],7-4[8:1],3^8[8:1],5,3-6[8:1]/7-2[8:1],,4b/8b,

{8}
E4/B3,E6/B6,E3/B2,E7/B7,1h[8:3],,,E2/B1,,E4/B4,,7,78,,35,,
E8/B7,B1/E2,C,E4/B3,E6/B5,Cf,,,8,1,6,3,7,2,35,,
{12}
6,5,7,3,4,2,{8}6h[8:3],4,4,E6/B5,,E8/B8,,2h[4:1],,C,,8h[2:1]/4h[2:1],,,,,{12}7,6,5,1,2,3,E8,E7,E6,E2,E3,E4,1,8,7,2,3,4,
{8}
8/5h[8:3],,,6,5,6,4,E8/B8,,E6/B5,,2,12,,42,,47,6,1,3,25,4,8,6,
2-5[8:1],2,8-4[8:1],8,1w5[8:1],,1b,,

{16}2-4[16:3],,,4-6[16:3],{8},7,7,,
{16}7-5[16:3],,,5-3[16:3],{8},2,2,,
{16}1-3[16:3],,,3-5[16:3],{8},6,6qq1[8:5],,4,,3,,2,,
{16}2-4[16:3],,,4-8[16:3],{8},7,7,,
{16}7-5[16:3],,,5-1[16:3],{8},2,2,,
{16}3-1[16:3],,,1-5[16:3],{8},8,8,,{12}7,5,6,2,4,3,6,,,
{16}7<5[16:3],,,5>3[16:3],{8},2,2,,
{16}2>4[16:3],,,4<6[16:3],{8},7,7,,
{16}8<6[16:3],,,6>4[16:3],{8},3,3pp8[8:5],,5,,6,,7,,
{16}7<5[16:3],,,5-1[16:3],{8},2,2,,
{16}2>4[16:3],,,4-8[16:3],{8},7,7,,
{16}7h[16:3],,,4h[16:3],{8},5,26,,{16}3,4,3,4,2,4,2,4,{4}1-6[8:1],

1b/6b,5,5,5,5,5,{8}5,3h[8:3],{4}5,5,5/2h[4:3],5,5,5,{16}5,,2,3,{4}5/4h[4:1],5,
6bpp1[4:6]/4,4,4,4,3,3,2,2,{16}2,4,3,4,,,7,5,6,5,,,{16}1/8h[16:3],,,1,{12}2,3,4,1,2,3,{24}8b,1,2,3,4,5,6v1[8:1],7,8,1,2,3,

{4}4b/6b,{16},,7,8,7,,16,,5/3h[16:3],,,4,3,,{8}12,3h[4:1]/8,,7-4[8:1],8,7,2-4[8:1],1,2,{12}7,5,6,2,4,3,8pp4[8:3],1,6,{8}8,,,7,7,38,{16}4/6h[16:3],,,5,{8}6,78,61,25,
{16}3,4,3,4,2,5,2,5,1,6,1,6,2,1,2,1,3,8,3,8,4,7,4,7,
{8}4<2[8:3],,,8h[4:1],,,{16}8h[16:3],,,2h[16:3],,,{8}4,4/3-7[8:1],,
5>7[8:3],,1,1h[4:1],,,{16}1h[16:3],,,7h[16:3],,,5,,5/6^1[8:1],,,,
2b,3,4,5,6,7,8,1,7b,6,5,4,2b,1,8,7,6,5,4,3,8b,7,6,5,
{8}4b/1h[2:1],,5,5,6,6,57,,{16}1,8,3,6,2,7,4,5,

{8}2b/7b,,,,,2,2,4,3,2h[2:1]/4h[2:1],,,,,2,2,4,3,2h[2:1]/4h[2:1],,,,,2,2,4,3,2h[2:1]/4h[2:1],,,,,35,5,46,4,
5/7h[2:1],,5,,5,7,7,5,6,5/7h[2:1],,5,,5,7,7,5,6,5/7h[2:1],,5,,5,45,,2b/7b,,
{16}1,2,3,45,6,7,1,2,3,45,6,7,1,2,3,45,6,7,

{8}8b/1b-5[8:1],,1,7-4[8:1],,7,8,1,2^5[8:1],1,2,8-4[8:1],,8,2-5[8:1],,
2/6<4[4:1],,6/2h[4:1],,,1,1-4[8:1],,18,,{16}8,7,6,5,1,2,3,4,1,8,7,6,
{8}15,,6-1[8:1],5,6,3>5[4:1],,3/8h[4:1],,,7,7-4[8:1]*-2[8:1],,7,,
1V36[4:1]/5V72[4:1],,,,,48,3-8[8:1]/7-4[8:1],,3b/7b,,1,1,{16}6,5,{8}6,7,48,,
6,6h[4:1],8,8h[4:1],1,1h[4:1],3,3,{12}7,5,6,2,4,3,8,6,7,1,3,2,
{8}8,8h[4:1],6,6h[4:1],4,4h[4:1],1,1h[24:5],{12},8,8,2,4,3,7,5,6,{8}15,,{8}
53,3,3,75,7,7,42,2,2,18,8,8,1/2-5[8:1],2,8b-4[8:1],8,1b-5[8:1],1,7b-4[8:1],7,2b,2,1b-5[8:1]/8b-4[8:1],,1b^4[8:1]/8b^5[8:1],,1b/8b,,
{24}8,7,6,,1h[6:1],,7,6,5,,1h[6:1],,6,5,4,,1h[6:1],,5,4,3,,1,,

{1}
1bq3[4:11]/3b<2[4:11],,,,{8},,,,
4,5/3h[4:1],,6,5/7h[4:1],,{12}3,4,2,6,5,7,3,,,
{16}7-5[16:3],,,5-3[16:3],{8},2,2h[4:1],,
{16}7-5[16:3],,,5-3[16:3],{8},2,2,,
{16}2-4[16:3],,,4-6[16:3],{8},7,7qq1[8:5],,4,,3,,2,,
{16}2-4[16:3],,,4-6[16:3],{8},7,7h[4:1],,
{16}3-1[16:3],,,1-7[16:3],{8},6,6,,
{12}3,4,3,6,5,6,2,4,3,57,,1,8,2,1,{8}83,,
1b/5b,1b/5b,,3b/7b,3b/7b,,
{32}2,3,4,5,6,7,8,1,2,3,4,5,6,7,8,1,{4}2b/6b,

{4}82,6/8^5[8:1],8^3[8:1]/2,8-5[8:1]/6,8-3[8:1]/2,8<2[4:1]/6,82,{8}1,1-5[8:1],,1,8^5[8:1],,{16}4,3,2,1,8,7,6,5,
{4}48,4^1[8:1]/2,4^7[8:1]/6,4-1[8:1]/2,4-7[8:1]/6,2/4>6[4:1],46,{8}5,5-1[8:1],,5,2qq5[2:1],,2/6h[4:1],,,,
8,8,17,1,26,2,{12}6,4,6,2,4,2,{8}71,,1,1,28,8,73,7,{12}3,5,3,7,5,7,28,,,
1/6b,2,3,4/7b,3,2,1/6b,2,3,4/7b,6,5,4/1b,5,6,7/2b>1[8:3],6,5,{4}4h[4:1]/2b,,7<1[8:3],7b/3h[4:1],,3v8[8:1]/7-4[8:1],

{8}7b/3b,,,{16}2,1,{8}2,38,{16}4/6h[16:3],,,5,{8}6,78,1/6h[4:1],,2-5[8:1],1,2,7-1[8:1],8,7,{12}2,4,3,7,5,6,1qq5[8:3],8,3,{8}1,,,2,2,16,{16}5/3h[16:3],,,4,{8}3,12,38,47,{16}6,5,6,5,7,4,7,4,8,3,8,3,7,8,7,8,6,1,6,1,5,2,5,2,
{8}5>7[8:3],,2,1h[8:1],,2,{16}2h[16:3],,,7h[16:3],{8},5,5/6-2[8:1],,4<2[8:3],4,8,8h[8:1],,7,{16}7h[16:3],,,2h[16:3],{8},4,4/3^8[8:1],,
{16}7b,6,5,4,3,2,1,8,7b/2b,3,4,5,7b,8,1,2,3,4,5,6,7b/1b,2,3,4,
{8}5b/8h[2:1],,4,4,3,3,{16}82,7,6,5,{32}2b,3,4,5,6,7,8,1,{8}2b/6b,,

{8}75,6,6,6,6,24,3,3,3,28,1,1,1,1,{32}78,6,5,4,,,,,12,3,4,5,,,,,
{8}86,7,7,7,7,24,3,3,3,71,8,8,8,8,{32}1b/2b,3,4,5,,,,,8b/7b,16,52,43,,,,,

{1},,,,E

Re:MASTER


  • MAS追加しました。確認はしましたが、ミスなどありましたら修正お願いいたします。 -- Igniser. (2020-05-07 14:28:31)
  • 47,5,1,3,→47,6,1,3,、{12}1/8h[6:1],,1,2,3,4,→{16}1/8h[16:3],,,1,{12}2,3,4,、5,6/4h[4:1],,→4,5/3h[4:1],,、3/8^5[8:1],→6/8^5[8:1],、1,8^5[16:3],,→1,8^5[8:1],,の箇所の修正を行いました。 -- けもがみ (2026-03-09 17:03:14)
名前:
コメント:

タグ:

+ タグ編集
  • タグ:
最終更新:2026年04月07日 21:33