|
EXPERT |
MASTER |
Re:MASTER |
| 譜面制作者 |
サファ太 |
シチミヘルツ |
- |
BASIC
(210.0){1},,,,
{1}4x,
{1}4x/5x,
{1}5x,
{1}4x/5x,
{1}4,
{1}4/5,
{1}5,
{1}4b/5b,
{1}4h[1:1],,
{2}4,4,
{1}4,
{1}3h[1:1],,
{2}3,3,
{1}3x/4x,
{2}2,2,
{1}2,
{2}1,1,
{1}1,
{2}8,8,
{1}8,
{2}1,1,
{1}1b/8b,
{1}B2,
{1}B3,
{1}B4,
{1}B5,
{1}B6,
{1}B7,
{1}Chf[1:1],,
{4}8,8,8,,
{1}8,
{4}7,7,7,,
{1}7,
{4}6,6,6,,
{4}5,5,5,,
{2}4,4,
{1}4/5,
{4}4,4,4,,
{1}4,
{4}3,3,3,,
{1}3,
{4}2,2,2,,
{4}1,1,1,,
{1}8-4[4:3],,
{1}3/4,
{1}4/5,
{1}5h[1:1]/6h[1:1],,
{1}5/6,
{1}4/5,
{1}3h[1:1]/4h[1:1],,
{1}1/2,
{1}1/8,
{1}7h[1:1]/8h[1:1],,
{1}7/8,
{1}1/8,
{2}1/2,1/2,
{1}1/2,
{2}1/8,1/8,
{1}1/8,
{2}7/8,7/8,
{1}7/8,
{1}1h[1:1]/8h[1:1],,
{1}2,
{1}2,
{1}3,
{1}3,
{1}4,
{1}4,
{1}5h[1:1],,
{1}6,
{1}6,
{1}7,
{1}7,
{1}8,
{1}8,
{1}1b/8b,,
{1}E2/E8,,
{1}B2/B7,,
{1}B3/B6,,
{1}Chf[1:1],,
{4}8,8,8,,
{1}1/8,
{4}7,7,7,,
{1}7/8,
{4}6,6,6,,
{4}5,5,5,,
{2}4/5,4/5,
{1}3x/6x,
{4}4,4,4,,
{1}4/5,
{4}3,3,3,,
{1}3/4,
{4}2,2,2,,
{4}1,1,1,,
{1}8-4[4:3],,
{1}1-5[4:3],,
{2}8b,8,
{2}1,1,
{2}2,2,
{2}3,3,
{2}4,4,
{2}5,5,
{2}6,6,
{8}7h[8:7],,,,,,,,
E
ADVANCED
(210.0){1},,,,
{2}6h[2:1],5,
{2}5/6,4/5,
{2}3h[2:1],4,
{4}5,5,5,,
{2}7h[2:1],8,
{2}7/8,1/8,
{1}2h[2:1]/7h[2:1],
{1}3b/6b,
{4},2x-5[4:3],,,
{2},6,
{1}6-3[4:3],
{2},2,
{1}2-5[4:3],
{2},6,
{1}4h[2:1]/5h[2:1],
{4}4/5,4/5,4x/5x,,
{2}3h[4:1]/4h[4:1],3/4,
{4}6,6,5/6,,
{4}3,3,3/4,,
{2}4/5,3/6,
{4}7,7,7/8,,
{4}2,2,1/2,,
{4}8,8,1,1,
{2}1/8,2x/7x,
{2}E3,B3,
{1}B5/E5,
{2}E7,B6,
{1}B4/E5,
{2}E2,C1,
{2}E6,E3/E7,
{1}Ch[1:1],,
{4}3b,3,4,4,
{2}4x/6x,7/8,
{4}7,7,6,6,
{2}4x/6x,2/7,
{4}3,3,2/4,,
{4}6,6,5/7,,
{4}1,1,8,8,
{2}1h[4:1]/8h[4:1],2x/7x,
{4}3,3,3/4,3/4,
{2}2x/5x,3/4,
{4}6,6,5/6,5/6,
{2}4x/7x,1/8,
{4}2,2,1/3,,
{4}7,7,6/8,,
{1}1-5[4:3]/8-4[4:3],
{2},3x/6x,
{2}3h[2:1],4h[2:1],
{2}5h[2:1],6,
{4}7,7,6,6,
{4}5,5,3x/5x,,
{2}6h[2:1],5h[2:1],
{2}4h[2:1],3,
{4}2,2,3,3,
{4}4,4,4x/6x,,
{2}7h[2:1],8h[2:1],
{2}1h[2:1],2,
{4}3,3,2,2,
{4}1,1,1x/7x,,
{2}6h[2:1],5h[2:1],
{2}4x,3x/6x,
{4}2,2,3,3,
{4}4,5,4/6,,
{4}7,7,6,6,
{4}5,4,3/5,,
{4}6,6,7,7,
{4}8,8,1/7,,
{4}3,3,2,2,
{2}1h[4:1]/8h[4:1],2b/7b,
{1}3>6[4:5],,
{1}5p4[4:5],,
{1}3x-8[4:3],
{2},7,
{1}7-4[4:3],
{2},3,
{1}1-6[4:3]/2-5[4:3],
{2},7,
{1}7-4[4:3]/8-3[4:3],
{2},2,
{1}1x-4[4:3]/8x-5[4:3],
{2},3/6,
{1}Ch[1:2],,,,,,,,
{1}4h[2:1]/5h[2:1],
{1}3/6,
{4}2b,2,1/2,1/2,
{2}3/8,4/5,
{4}7,7,7/8,7/8,
{2}1/6,2/7,
{4}3,4,3/5,,
{4}6,5,4/6,,
{4}7,7,8,8,
{4}1/8,2/7,3x/6x,,
{4}6,5/6,3,3/4,
{4}2x/5x,,1,1,
{4}7,7/8,2,1/2,
{4}3x/8x,,4,4,
{4}5,6,4x/7x,,
{4}4,3,2x/5x,,
{1}1-5[4:3]/2-6[4:3],
{2},4x/7x,
{1}7-3[4:3]/8-4[4:3],
{2},2x/5x,
{4}3,3,4,5,
{4}6,7/8,7/8,,
{4}6,6,5,4,
{4}3,1/2,1/2,,
{4}2,2,3,4,
{4}5/6,4/7,3/8,,
{4}1,1,8,8,
{8}Ch[8:7],,,,,,,,
E
EXPERT
(210)
{8}27,,3,34,,5,45,,3,34,,5,45,,6,,
47,,6,56,,4,45,,6,56,,4,45,,3,,
25,,3,34,,6,56,,3,34,,6,56,,47,,
18,,2,24,,7,57,,{6}6x,7x,8x,1x,2x,3x/6x,
{4},4h[1:1]/5,5,5,6,6,56,4,
3h[4:3],5,5,4,24,1,8,8,
3,3,4,25,6,6,5,74,
{8}2x/8x,2x/8x,,,1x/7x,1x/7x,,,{4}56,45,3x/4x,,
6h[2:1],4,5,7,3h[2:1],5,4,2,
7h[2:1],5,6,8,5h[2:1]/7,7,6,45,
2h[2:1],4,5,36,7h[2:1],8,8,16,
{8}2x/4x,2x/4x,,,5x/7x,5x/7x,,,{4}36,45,2b/7b,,
{8}7x,7hx[4:3],,E6,,E4,,Ch[8:5],{2},E7,
{8}2x,2hx[4:3],,E4,,E6,,Ch[8:5],{4},,1x,1x,
28,3,17,6,25,1,47,8<1[2:1],
{1},{4}45,,27,1b/8b,
{8}2,2,4,,{2}3-1[8:1]/8-4[8:1],{4}2x/5x,2,12,34,
{8}6,6,5,,{2}4-8[8:1]/7-5[8:1],{4}1x/6x,6,57,45,
3/4h[4:1],1,5h[4:1]/6,8,1/2h[4:1],3h[4:1],4,5/6q3[8:3],
{2}4x,8x,{8}45,,3x,2x/4x,,6x,5x/7x,,
2,2,1,,{2}3-1[8:1]/8-4[8:1],{4}2x/6x,6,57,24,
{8}7,7,8,,{2}1-5[8:1]/6-8[8:1],
{4}3x/7x,3,24,18,7h[4:1],6h[4:1],5,47,3h[4:1],2h[4:1],1,38,
{8}2x-5[8:1],,8,8x-4[8:1],,2,2x-5[8:1],,
8,8,,18,1x-5[8:1]/7x-4[8:1],,,,
{6}3x/6x,,,2hx[6:1],3hx[6:1],4hx[6:1],
{4}5x,,6,8,{8}1x/7x,,2,24,,5,45,,
2,24,,5,45,,36,,{6}2x/7x,,,7hx[6:1],6hx[6:1],5hx[6:1],
{4}4x,,3,1,{8}2x/8x,,7,57,,4,45,,
7,57,,4,45,,56,,{6}3x/7x,,,5hx[6:1],6hx[6:1],7hx[6:1],
{4}8x,,1,3,
{8}16,,7,57,,3,35,,7,57,,
3,35,,2,,{6}1x/7x,,,4hx[6:1],3hx[6:1],2hx[6:1],
{2}1x,1[4:1]/8[4:1],
{8}2b/7b,,6,64,,2,24,,6,64,,2,24,,8,,
25,,3,35,,7,75,,3,35,,7,5/7-3[8:1],,,,
1x,,2,24,,7,78,,2,24,,7,78,,16,,
45,,2,12,,7,57,,2,12,,45,45,,2>8[2:3],,
{0.5}8b,1s5[4:5],
{4}6h[1:1],,,5,5h[1:1],,,4,{1}4>5[1:1],{4},,,45,
3,3,34,3,5,5,45,5,2,2,24,2q5[4:3],,,,8,
E8,E7,E6,E5,E4,E3,E2,E1,
{1}Ch[2:1],8-5[4:1],1b,,,,,,
Ch[1:1],{4},,27,1x/8x,
{8}2,2,4,,{2}3-8[8:1]/7-4[8:1],{4}2x/6x,6,45,12,
{8}7,7,8,,{2}2-5[8:1]/6-1[8:1],{4}3x/7x,3,24,45,
5/6h[4:1],1,3h[4:1]/4,8,1/2h[4:1],3[4:1],4,5/6<4[2:1],
{2}4x,1x,{8}18,,3x/4x,3x/4x,,5x/7x,5x/7x,,
2,2,1,,{2}5-1[8:1]/7-4[8:1],{4}2x/6x,2,34,18,
{8}7,7,5,,{2}3h[8:1]/4-8[8:1],{8}1x,,3,2x/4x,,7,6b/8b,,
{4}2h[4:1],4h[4:1],5h[4:1],7,3h[4:1],1h[4:1],8h[4:1],6,
{8}3x-7[8:1],,8,8x-4[8:1],,3,3x-7[8:1],,8,8x-4[8:1],,3,3,,2x/6x,,
1x-5[8:1],,6,6x-2[8:1],,1,1x-5[8:1],,6,6,,47,4/7-4[8:1],,3x>6[4:3],,
{1}5b,{4}4,5,6h[4:1],1x-6[4:3],
{1}8x,{4}7,5,4h[4:1],8b,
{8}3,4,2,6,5,7,3,4,2,6,5,7,{2}4-1[8:1],
{8}7,8,6,2,1,3,8b,,
{6}7hx[6:1],6hx[6:1],5hx[6:1],3hx[6:1],4hx[6:1],
{1}Cf,,,,,,
E
MASTER
(210)
{8}6,6,6,5,5,5,3,3,3,4,4,4,5,5,4,4,
6,6,6,5,5,5,3,3,3,4,4,4,5,5,3x/6x,,
2-4[8:1],1,2,8-4[8:1],1,8,2-4[8:1],1,2,7-4[8:1],8,7,1,1,2x/8x,,
7-5[8:1],8,7,1-5[8:1],8,1,7-5[8:1],8,7,2-5[8:1],1,2,8,8,1x/7x,,
2-4[8:1],1,2,8-4[8:1],1,8,2-4[8:1],1,2,7-4[8:1],8,7,1,1,2x/8x,,
3-1[8:1],4,3,6-8[8:1],5,6,3,3,{6}12,38,47,18,27,3b/6b,
{4},4/5h[4:3],3,2,1h[1:1],4,6,7,8h[1:1],5,3,2,1,27,{8}4,5,36,,
{4}3h[1:1]/5,4,6,7,8h[2:1],5,4,3x/6x,
{8}24,2h[8:1]/4h[8:1],,,57,5h[8:1]/7h[8:1],,,1,1,8,8,{4}2x/7x,45,
,2/8h[4:1],{8}4,4,5h[4:1],,1,1,8,8,4,5,36,,
{4}2/8h[4:1],5,2/5h[4:1],{8}1,1,24,,6,57,,3,24,,
{4}1h[4:1],6,4h[4:1]/8,{8}7,7,1,1,5,4h[4:1],,8,8,,
57,5h[8:1]/7h[8:1],,,24,2h[8:1]/4h[8:1],,,78,7,12,2,{2}3b/7b,
{8}24,{4}24,35,4<3[8:5]/6,7h[8:3],,{8},8x,8x,8x,,57,
{4}57,46,3/5>6[8:5],2h[8:3],,{8},1x,1x,1x,,
{4}2-4[8:1]/4,8x,5/7-5[8:1],1x,2^5[4:1],5^8[4:1],8^3[4:1],3q4[2:1],
6,{16},,7x,6x,{1}5x,{4},3b/6b,
{8}1-5[8:1],1,6-2[8:1],6,8-3[8:1],8,5^8[8:1],5,
{4}1-3[8:1]*-4[8:1],1x,1-6[8:1]*-7[8:1],1x,
{8}8-4[8:1],8,3-7[8:1],3,1-6[8:1],1,4^1[8:1],4,
{4}8-3[8:1]*-5[8:1],8b,24,57,
1^3[8:1]/5^7[8:1],15,1-6[8:1]/5-2[8:1],15,1^6[4:1],4^1[4:1],7^4[4:1],8,
1-6[4:1],6-3[4:1],3-8[4:1],8,{24}7,6,5,{4}4h[4:1],{24}1,2,3,{4}4h[4:1],8b,
{8}1-5[8:1],1,6-2[8:1],6,8-3[8:1],8,5^8[8:1],5,
{4}1-3[8:1]*-5[8:1],1x,1-5[8:1]*-7[8:1],1x,
{8}8-4[8:1],8,3-7[8:1],3,1-6[8:1],1,4^1[8:1],4,{4}8w4[8:1],8b,16,38,
1-4[8:1]/7-4[8:1],17,2-5[8:1]/8-5[8:1],28,
1/7-4[8:1],2-5[8:1]/7,2/8-4[8:1],3b/8b,
2-5[8:1],{32}2x,B3,B5,,{4}7-4[8:1],{32}7x,B6,E5,,{4}2-6[8:1],{32}x,B2,B6,,
{4}8-4[8:1],{32}8x,B8,B4,,{4}1w5[8:1],1b`B3/B7/E4/E7/Cf,
{2}2xh[4:1]/8hx[4:1],{6}24,45,57,{2}27,{16}3,4,3,4,2b,,,,
{8}1x/5,5,5,5/7x,5,5,2x/5,5,5,5/7x,5,5,1x/5,5,5/7x,5,
{2}3x/5,{6}57,45,24,{2}27,{16}6,5,6,5,7b,,,,
{8}4/8x,4,4,2x/4,4,4,4/7x,4,4,2x/4,4,4,4/8x,4,2x/4,4,
{2}4/6x,{6}13,18,68,{2}36,{16}2,1,2,1,3b,,,,
{8}4x/8,8,8,6x/8,8,8,3x/8,8,8,6x/8,8,8,4x/8,8,6x/8,8,
{2}2x/8,{6}78,12,34,{2}56,2b/7b,
{8}2x/4x,3,4,5x/7x,6,5,1x/4x,2,3,4x/8x,7,6,1x/5x,2,3x/7x,8,
5x/7x,6,5,2x/4x,3,4,5x/8x,7,6,1x/5x,2,3,4x/8x,7,2x/6x,1,
2x/4x,2,2,1x/5x,1,1,2x/6x,2,2,3x/7x,3,3,4x/8x,7,2x/6x,5,
1x/4x,4,4,2x/5x,5,5,3x/6x,6,6,4x/7x,7,7,18,18,2b/7b,,
{0.5}4h[2:3]/5<2[4:5],3V15[4:5]/4h[2:3],
{2}3h[1:1]/5pp8[4:5],,,2<3[4:7],{0.5}8h[2:3],
{4}1>5[4:5],6,6,6,6,6,6,6,6>2[4:5]/7,7,7,7,7,7,7,7,
1-4[2:1],E6,B6,B7,8-5[2:1],E4,B3,B2,
1-4[2:1],5-8[4:1],{64}E3,B3,C,B6,E7,,,,,,,,,,,,{4},{1},
{0.5}1b,,,{1}3h[4:3]/6h[4:3],{4}36,4-1[8:1]/5-8[8:1],4x/5x,2b/7b,
{8}8-3[8:1],8,5-2[8:1],5,7-3[8:1],7,1^6[8:1],1,
{4}4-1[8:1]*-7[8:1],4x,8w4[8:1],8b,
{8}1-6[8:1],1,4-7[8:1],4,2-6[8:1],2,8^3[8:1],8,
{4}5-2[8:1]*-8[8:1],5x,57,24,
{4}4^2[8:1]/8^6[8:1],48,4-7[8:1]/8-3[8:1],48,8^3[4:1],5^8[4:1],2^5[4:1],1,
8-3[4:1],3-6[4:1],6-1[4:1],4,{24}4,3,2,{4}1h[4:1],{24}5,6,7,{4},4b/8b,
{8}2-6[8:1],2,4-7[8:1],4,5-2[8:1],5,8^3[8:1],8,
{4}4-1[8:1]*-7[8:1],4x,8w4[8:1],8b,
{8}7-3[8:1],7,5-2[8:1],5,4-7[8:1],4,1,1,25,{16}3,4,{8}3,25,,56,4b/7b,,
{4}7-4[8:1]/8-4[8:1],78,1-5[8:1]/2-5[8:1],12,
6-1[8:1]/8,2-7[8:1]/6,2/1-4[8:1]*-6[8:1],1b,
{4}2-5[8:1],{32}2x,B3,E5,,{4}7-4[8:1],{32}7x,B6,E5,,{4}2-6[8:1],{32}2x,B2,B6,,
{4}8-4[8:1],{32}8x,C,B4,,{4}1w5[8:1],1b`B3/B7/E4/E7,
8-4[8:1],{32}8x,C,B4,,{4}2-5[8:1],{32}2x,B3,E5,,{4}7-3[8:1],{32}7x,B7,B3,,
{4}1-5[8:1],{32}1x,B1,B5,,{4}8w4[8:1],8b`B2/B6/E3/E4/E5/E6,
{8}7,7,7,1,1,1,3,3,3,5,5,5,7,7,7x/8x,,2,2,2,8,8,8,6,6,6,4,4,4,2,2,3b/8b,,
6-1[8:1],5,6,3-8[8:1],4,3,5-1[8:1],4,5,3-8[8:1],4,3,5,5,4x/6x,,
2-5[8:1],1,2,7-4[8:1],8,7,2,2,{6}12,38,47,78,16,2b/5b,
{1},,,,,,
E
Re:MASTER
- MASTER追加&EXPERT一部修正 -- 嵐雅 (2021-04-26 22:37:30)
最終更新:2022年06月05日 03:07