BASIC
ADVANCED
EXPERT
(215)
{4}45,4,45,5,45,3,45,6,
45,2,45,7,45,1,45,8,
45,B2/B3,45,B6/B7,45,B2/E2,45,B7/E8,
45,B1/B8,45,E3/E7,{1}1b/8b,
{4}3h[2:1],,2,,6h[2:1],,7,45,
2h[2:1],,3,,7h[2:1],,6,45,
1b,2,3,4,2b/5,47,35,46,
3b/5,47,2b/5,48,{1}B2/B3/B6/B7/Cf,
{4}45,34,56,23,{8}67,,45,,3,3,24,,
56,,34,,45,,6,6,57,,24,,18,18,2b/7b,,
4,5,4,,56,,34,,67,,23,,8x<5[4:1]/1x,1x,1x,,
4,,36,,1x>4[4:1]/8x,8x,8x,,
{4}5hx[8:1],4hx[8:1]/6hx[8:1],3hx[8:1]/7hx[8:1],1hx[8:1]/8hx[8:1],
{8}1b,,28,2h[4:1]/8,,4h[4:1],,6h[4:1],
,8h[4:1],,2,2h[4:1],,1,2,38,,17,1/7h[4:1],,5h[4:1],,3h[4:1],
,1h[4:1],,7,7h[4:1],,8,7,{4}1/6h[8:1],2/6h[8:1],3/6h[8:1],4/6h[8:1],
{8}3h[8:1]/5,,3h[8:1]/6,,3h[8:1]/7,,3x/8x,3x/8x,
{4}1h[8:1]/2h[8:1],3h[8:1]/4h[8:1],5h[8:1]/6h[8:1],7h[8:1]/8h[8:1],
1b/6,2b/5,3b-8[8:1]/4,5b,2-6[8:1]/7,5b,1-4[8:1],5b,
2-6[8:1]/7,5b,3-8[8:1],5b,2-6[8:1]/7,5b,1-4[8:1],5b,
5x/7x,2x/4x,{8}1x/8x,1x/8x,2b/7b,,
{4}3h[8:1]/6h[8:1],2h[8:1]/5h[8:1],3h[8:1]/6h[8:1],4h[8:1]/7h[8:1],
3h[8:1]/6h[8:1],2h[8:1]/5h[8:1],3h[8:1]/6h[8:1],{8}4x/5x,4x/5x,
{4}3h[8:1]/6h[8:1],5h[8:1]/7h[8:1],3h[8:1]/6h[8:1],2h[8:1]/4h[8:1],
3/6-1[8:1],2-5[8:1],6x,1b/8b,
{8}4h[4:1]/5h[4:1],,,1h[4:1]/2h[4:1],,,4h[4:1]/5h[4:1],,
,7h[4:1]/8h[4:1],,,45,45,3b/6b,,
1h[4:1]/8h[4:1],,,2h[4:1]/4h[4:1],,,1h[4:1]/8h[4:1],,
,5h[4:1]/7h[4:1],,,{4}1/8-5[8:1],4b,
{8}4h[4:1]/6h[4:1],,,7h[4:1]/8h[4:1],,,3h[4:1]/5h[4:1],,
,1h[4:1]/2h[4:1],,,45,45,3b/6b,,
1h[4:1]/8h[4:1],,,6h[4:1]/7h[4:1],,,1h[4:1]/8h[4:1],,
,2h[4:1]/3h[4:1],,,{4}1/8-4[8:1],4b>5[2:3],
{0.25}1b,{2}3h[2:1],4h[2:1],5h[2:1],6h[2:1],
{1}5p4[4:3],,4qq4[2:1],5pp5[2:1],3>6[2:1],4p5[2:1]/6<3[2:1],
{4}4b/6b,5,,5,1b/8b,4,,4,1b/7b,5,,5,
{16}2x/8x,,,2x/8x,,,2x/8x,,{2},
{4}3b/4b,2h[2:1],,1,6b,7h[2:1],,8,
5b,2h[2:1],,3,4b,7h[2:1],,6,
3b,4,5,6,2b,1,8,7,
1b,28,37,46,{1}B1/B5/Cf,
{4}34,45,56,6q3[2:1]/7^2[2:1],{1},
{8}3,3,4,,6,6,5,,{4}24,57,36,1x/8x,
B2/E2,B6/E6,B4/E4,B8/E8,B2/B3,B6/B7,{8}E5,C,E1,,
{4}E4/E6,E2/E8,{8}E1,C,E5,,{1}Ch[2:3],,
{4}3-5[16:1]/8,7,2-4[16:1]/6,5,3-5[16:1]/5,6,2-4[16:1]/7,8,
{8}38,38,38,,16,16,16,,
{4}4hx[8:1]/5hx[8:1],4hx[8:1]/5hx[8:1],{8}4x/5x,4x/5x,2x/7x,,
{4}1/6-4[16:1],2,3/7-5[16:1],4,1/6-4[16:1],3,3/7-5[16:1],1,
{8}46,46,46,,35,35,35,,
{4}1hx[8:1]/8hx[8:1],1hx[8:1]/8hx[8:1],{8}1x/8x,1x/8x,2b/7b,,
{4}34,34,25,,6h[4:1],5h[4:1],4h[4:1],3,
56,47,25,34,1^4[4:1]/8^5[4:1],,,2b/7b,
{8}1-4[8:1]/8,,5,5h[4:1],,6h[4:1],,7,
7-4[8:1],,3,3h[4:1],,2h[4:1],,1,
1,28,,24,,4-1[8:1]/6,,7,7,68,,24,,27,2b/7b,,
1/8-5[8:1],,4,4h[4:1],,3h[4:1],,2,
2-5[8:1],,6,6,4,4,5,5,{4}46,25,37,15,
3x/7x-3[16:1],1x-5[16:1],6x,1b/8b,
7x-4[16:1],8x-3[16:1],7x-4[16:1],8x-3[16:1],
7x-4[16:1],8x-3[16:1],{8}7x,7x,6x/8x,,
{4}4x-1[16:1],5x-8[16:1],4x-1[16:1],{8}5x,5x,
{4}4hx[8:1]/6hx[8:1],3hx[8:1]/7hx[8:1],2hx[8:1]/8hx[8:1],1b,
2x-5[16:1],1x-6[16:1],2x-5[16:1],1x-6[16:1],
2x-5[16:1],1x-6[16:1],{8}2x,2x,1x/3x,,
{4}45,68,45,24,57,23,6/7p2[8:1],1x,
,1b/8b,4/5-8[16:1],1b,
4/6-2[16:1],1b,4/7-3[16:1],1b,
4/6-2[16:1],1b,4/5-8[16:1],1b,
2x/4x,5x/7x,{8}1x/8x,1x/8x,2b/7b,,
{4}3x-5[16:1],6x-4[16:1],2x-6[16:1],7x-3[16:1],
1x-5[16:1],8x-4[16:1],1x,2b/7b,
{1}4qq1[4:3]/5pp8[4:3],
{4},36,27,
{1}1b-4[8:1]/8b-5[8:1],,,,,
E
MASTER
(215)
{4}4,45,4,45,4,45,4,45,4,45,4,45,4-1[8:1],5-8[4:1],,,
45,B2/B7/C,45,B2/B7/C,45,B3/B7/C,45,B2/B6/C,
45,B3/B7/C,45,B2/B6/C,5-1[8:1],4-8[8:1],,,
E6,E4,1-4[8:1],5,E8,E6,18,36,
E4,E6,8-5[8:1],4,E2,E4,18,36,
3hx[4:3],4,4,4,4hx[4:3],5,5,5,
3hx[4:1],4,2hx[4:1],3,{8}1,1-5[4:1],,8,8,,36,,
{4}2-4[8:1]/7-5[8:1],27,2-4[8:1]/7-5[8:1],27,2-4[8:1]/7-5[8:1],27,18,36,
1-4[8:1]/8-5[8:1],18,1-4[8:1]/8-5[8:1],18,2b-6[8:1]/7b,8b-4[8:1],1b-5[8:1],7b,
{16}1/7-5[8:1],,,,7/E1,C,E5,,2-4[8:1]/8,,,,2/E1,C,E5,,1/7-5[8:1],,,,7/E1,C,E5,,28,,,,36,,,,
2-4[8:1]/8,,,,2/E1,C,E5,,7-5[8:1]/1,,,,7/E1,C,E5,,2-4[8:1]/8,,,,2/E1,C,E5,,17,,,,3x/6x,,,,
1-4[8:1]/8,,,,1/E1,C,E5,,8-5[8:1]/1,,,,8/E1,C,E5,,1-4[8:1]/8,,,,1/E1,C,E5,,18,,,,36,,,,
8-5[8:1]/1,,,,8/E1,C,E5,,1-4[8:1]/8,,,,1/E1,C,E5,,8-5[8:1]/1,,,,8/E1,C,E5,,18,,,,36,,,,
4-2[8:1]/5,,,,4/E5,C,E1,,5-7[8:1]/4,,,,5/E5,C,E1,,4-2[8:1]/5,,,,4/E5,C,E1,,45,,,,27,,,,
4/5-7[8:1],,,,5/E5,C,E1,,4-2[8:1]/5,,,,4/E5,C,E1,,4/5-7[8:1],,,,5/E5,C,E1,,45,,,,2b/7b,,,,
1^4[8:1]/8,,,,1/E1,Cf,E5,,8^5[8:1]/1,,,,8/E1,Cf,E5,,1^4[8:1]/8,,,,1/E1,Cf,E5,,8^5[8:1]/1,,,,8/E1,Cf,E5,,
1^4[8:1]/8,,,,1/E1,Cf,E5,,8^5[8:1]/1,,,,8/E1,Cf,E5,,27,,,,45,,,,1,8,1,8,27,,,,
1-3[8:1]/8,,,,1/E1,C,E5,,1/7-5[8:1],,,,7/E1,C,E5,,1-4[8:1]/8,,,,1/E1,C,E5,,1/8^5[8:1],,,,8/E1,C,E5,,
1^4[8:1]/8,,,,1/E1,C,E5,,1/8-5[8:1],,,,8/E1,C,E5,,{4}1x-5[8:1],1/7-3[8:1],47,2x/6x,
{8}34,2,2,34,2,2,34,2,2,34,2,2,45,45,2x/7x,,
56,7,7,56,7,7,56,7,7,56,7,7,45,45,2x/7x,,
34,1,1,34,1,1,34,1,1,34,1,1,45,45,2x/7x,,
56,8,8,56,8,8,56,8,8,56,8,8,45,45,2>1[1:3]/7,,
{1}Ch[1:3],,,,
{4}E5,E4,E3,E2,E1,E8,E7,E6,
{6}56,7,18,2,3-7[8:1]/4,,{4}8-5[8:1],4-1[8:1],8,8,
{1}B2/B3/B6/B7/Cf,,
{4}8,8-4[8:1],,1>8[2:1],{1}Cf,
{2}2h[2:1],B6f/Cf,1h[2:1],B5f/Cf,8h[2:1],B4f/Cf,
{6}B3f/B4f/Cf,B5f/B6f/Cf,E3f/E7f/Cf,{4},1x/8x,
7,7h[4:1],B3f/Cf,,6,6h[4:1],B2f/Cf,,5,5h[4:1],B1f/Cf,,4,4h[4:1],B8f/Cf,,
3,3,3/B7f/Cf,3,2,2,2/B6f/Cf,2,1,1,1/B5f/Cf,1,8b,,,,
{8}B4/B5/E4/E6,,B1/B8/E2/E8,,26,26,3V16[2:1]/7,37,3/7V52[2:1],,{4},,,
{8}3,3,2-7[8:1],,6-3[8:1],,,,{4}1,2,3-1[8:1]7,3b,
24,B2/B6/C,57,B3/B7/C,24,B2/B6/C,57,B3/B7/C,
24,E5/C,57,E5/C,3h[4:3]/4h[4:1],,,Ch[2:1],,,,,
{8}2-7[8:1],2,6-2[8:1],6,4-1[8:1],4,8,8,57,4,35,2,18,7,46,3,
2-7[8:1],2,6-2[8:1],6,4-1[8:1],4,8,8,{4}B6/B7/E6,B2/B3/E4,E1/E5/C,1x/8x,
{16}1x-5[8:1]/5x-1[8:1],,,,15,Cf,,,3x-7[8:1]/7x-3[8:1],,,,37,Cf,,,4x-8[8:1]/8x-4[8:1],,,,48,Cf,,,2x-6[8:1]/6x-2[8:1],,,,26,Cf,,,
1x-5[8:1]/5x-1[8:1],,,,15,Cf,,,4x-8[8:1]/8x-4[8:1],,,,48,Cf,,,{4}B6/B7/E6,B2/B3/E4,E1/E5/C,2x/7x,
6h[1:1],4,B1/B8,{8},4,{4}3h[1:1],4,B1/B8,{8},5,6,6,4,4,5,5,{16}4>5[2:1],5,4,5,{4}4,,C,1x/8x,
{8}7-2[8:1],7,3-7[8:1],3,5-8[8:1],5,1>5[8:1],1,{4}5<1[8:1],1>5[8:1],5,1,
{8}2-7[8:1],2,6-2[8:1],6,4-1[8:1],4,8<4[8:1],8,{4}4>8[8:1],8<4[8:1],4,8,
{16}4-1[8:1]/5,,,,4/E5,C,E1,,4/5-8[8:1],,,,5/E5,C,E1,,4-1[8:1]/5,,,,4/E5,C,E1,,4/5-8[8:1],,,,5/E5,C,E1,,
4-1[8:1]/5,,,,4/E5,C,E1,,4/5-8[8:1],,,,5/E5,C,E1,,{4}2-7[8:1],8-4[8:1],1,2x/7x,
{16}3-1[8:1]/7,,,,3/E8,C,E4,,2/6-8[8:1],,,,6/E2,C,E6,,3-1[8:1]/7,,,,3/E8,C,E4,,2/6-8[8:1],,,,6/E2,C,E6,,
3-1[8:1]/7,,,,3/E8,C,E4,,2/6-8[8:1],,,,6/E2,C,E6,,{8}37,37,26,26,15,15,48,,
{16}2^4[8:1]/6,,,,2/E6,C,E2,,3/7^5[8:1],,,,7/E4,C,E8,,2^4[8:1]/6,,,,2/E6,C,E2,,3/7^5[8:1],,,,7/E4,C,E8,,
2^4[8:1]/6,,,,2/E6,C,E2,,3/7^5[8:1],,,,7/E4,C,E8,,{4}26,48,1>5[4:1]/6,5<1[4:1],
{4}1b>1[2:1],Cf,1b>1[2:1],Cf,1b>1[2:1],Cf,1b>1[2:1],Cf,1b>1[2:1],Cf,1b,Cf,
{16}2x/7x,,,,5,4,5,4,{4}5<1[4:1],1b>5[4:1],5b<5[2:1],Cf,5b<5[2:1],Cf,5b<5[2:1],Cf,5b,Cf,
{16}1x/8x,,,6x/7x,,,4x/5x,,,2x/3x,,,1-5[8:1],8,1,8,{4}1x,7-3[8:1],,1-4[8:1]/5-8[8:1],
{1}1b/5b,,,,,,,,,
E
Re:MASTER
(215)
{1} ,
{4} 4,45,4,45,5,45,5,45,4,45,5,45,
{1} 4z8[2:1]/5z1[2:1],
{4} 45,23,45,67,45,12,45,78,3h[4:1]/4,1,5/6h[4:1],8,
{8} 27,2/7-4[4:1],,5,5,,1,,
{4} 3h[8:3]/5h[2:1],,3,45,7h[2:1],
{8} 6,6,
{4} 5,45,2h[2:1]/4h[8:3],,4,45,6h[4:1],
{8} 5,5,
{4} 46,24,1h[4:3]/5b,4,5,6,4b/8h[4:3],6,4,2,3b/6h[4:1],8,2b/5<1[4:1],1s5[2:1]*V35[2:1],,,,18,
{8} 45,5,24,2,45,5,24,2,45,5,24,2,
{4} 4h[8:1]/5h[8:1],45,
{8} 57,7,45,4,57,7,
{4} 3h[8:1]/5h[8:1],3-8[8:1]/5,8-4[8:1],4-1[8:1]*-7[8:1],,8b,
{8} 46,6,24,2,46,6,24,2,46,6,14,1,
{16} 15,2,3,4,
{8} 56,6,35,3,18,8,
{16} 28,7,6,5,
{4} 3-8[8:1]/4,8-4[8:1],4w8[8:1],,2b/6b,
{8} 26,4,37,5,1,
{16} 7,5,
{8} 7-3[8:1],7,1-5[8:1],1,8-4[8:1],8,1,1,26,,48,4,57,6,35,2,
{16} 18,,2,4,2,7,5,7,
{4} 3-8[8:1],6b,
5h[8:1]/7h[8:1],4h[8:1]/5h[8:1],2h[8:1]/4h[8:1],1h[8:1]/8h[8:1],5h[8:1]/7h[8:1],2h[8:1]/4h[8:1],3h[8:1]/6h[8:1],
{16} 36,,8,1,
{8} 8-4[8:1],,1,1,15,26,37,48,
{4} 1b-5[8:1]/5,2b-6[8:1],3b-7[8:1],5b,
{8} 1-5[8:1]/8,8,18,,4/7-3[8:1],4,47,,2-6[8:1]/5,5,25,,3/7-4[8:1],3,37,,1-6[8:1]/5,5,15,,4/8-3[8:1],4,48,,25,,47,,8,8,
{16} 18,2,3,4,
{8} 5-1[8:1]/6,6,57,,3/4-8[8:1],3,24,,5-2[8:1]/6,6,57,,1,1,
{16} 18,7,6,5,
{8} 3/4-8[8:1],3,14,,5-1[8:1]/6,6,58,,
{4} 3/4^7[8:1],1w5[8:1],1,2b/8b,
{8} 7-5[8:1],4,7,2-8[8:1],4,2,7-5[8:1],4,7,2-8[8:1],4,2,6,6,48,,2-4[8:1],5,2,7-1[8:1],5,7,3,3,
{16} 4,5,3,6,4,5,3,6,
{8} 4-8[8:1],7,5,,1-4[8:1],4,1,8-5[8:1],5,8,1-4[8:1],4,1,8-5[8:1],5,8,1,1,37,,
1v4[8:1],4,1,8v5[8:1],5,8,1v4[8:1],4,1,8v5[8:1],5,8,1,1,3>5[4:15]/7,,
{1} 4h[1:1],,Ch[1:1],,
{4} 4/5h[4:3],4,4,4,3h[4:1]/4,4,
{8} 2,2,3,,
{16} 2h[16:1]/5h[16:1],,,3h[16:1]/4h[16:1],,,5h[16:1]/6h[16:1],,,4h[16:1]/7h[16:1],,,1>8[2:1],8,1,8,
{4} 1,,1,5,
{1} Cf,,
{4} 36,4/5^2[4:1],,1s5[8:5],
{1} 8b,
{4} 2b/8b,4/5h[2:1],,4,1b/8b,3h[2:1]/4,,4,8b,2h[2:1]/3,,3,
{16} 1h[8:3]/8b,,,8b,,,
{8} 8b,,,,,
{2} 7b/Ch[1:6],7,6b,6,5b,5,4b,4,
{4} 3b,3,3,3,2b,2,2,2,1b,1,
{16} 18,,18,,2,7,2,7,
{4} 4p3[2:1],8<4[4:1],,,26,4z8[8:3]/8z4[8:3],,,
{1} 1/5p2[2:1]*pp2[2:1],
{8} 18,2z6[8:3]/7s3[8:3],
{4} 36,,,1b/5h[2:1],2b,3b-1[8:1]*-8[8:1],3b,
67,C/E5,23,C/E1,67,C/E5,23,C/E1,56,E4/C,12,C/E8,5h[4:3]/6h[16:13],,,
{16} ,,,,5h[2:1],6h[16:7],,,
{4} ,,
{16} 45,,3,4,
{8} 2-5[8:1],6,6,6,6/8-4[8:1],6,6,6,3-7[8:1]/6,6,6,6,5-1[8:1]/6,6,6,6,2/6-3[8:1],2,2,2,
{16} 28,,3,4,
{8} 3-7[8:1],4,3/5-1[8:1],,15,,26,2,3b/8b,,4-1[8:1]/5,5,45,5,5/7-3[8:1],5,57,5,4-8[8:1]/5,5,45,5,5/7-3[8:1],5,57,5,1/5-2[8:1],1,15,1,1/4-8[8:1],1,14,1,1^4[8:1]/2^7[8:1],,12,,56,56,2b/8b,,5h[8:3]/6,,,7,
{4} 5/6h[4:1],5,
{8} 3/4h[8:3],,,2,
{4} 3/5h[4:1],4,56,34,
{16} 26,,2,,5,5,5,,
{4} 3-7[8:1]/7-3[8:1],,1-5[8:1]/5h[4:1],1b,37,
{8} 37,5,26,4,37,
{32} 3h[32:3]/7,6,5,4,,,,,1/6h[32:3],2,3,4,
{8} ,7,78,,26,
{32} 2/6h[32:3],3,4,5,,,,,3h[32:3]/8,7,6,5,
{8} ,2,12,,17,
{32} 1h[32:3]/7,6,5,4,,,,,2/8h[32:3],3,4,5,
{8} ,7,5-1[8:1]/7-4[8:1],,5b/7b,,28,37,4/6-3[8:1],,16,,28,
{32} 2h[32:3]/8,7,6,5,,,,,1/7h[32:3],2,3,4,
{8} ,7,78,16,25,,
{32} 3h[32:3]/7,6,5,4,,,,,1/5h[32:3],2,3,4,,,,,
3h[32:3]/8,7,6,5,,,,,1/6h[32:3],2,3,4,,,,,
{4} B6/B7/Cf/E6/E8,B2/B3/Cf/E2/E4,Cf/E1/E5,2b/7b-5[8:1],
7/8-4[8:1],1-3[8:1]/8,1-5[8:1]/5,1/6-1[8:1],4-8[8:1]/6,48,
{48} 1,E2,B2,B3,E4,,7,E7,B6,B5,E5,,
{4} 1b,3-8[8:1]/8,3/5-1[8:1],15,
{48} 8,E8,B7,B6,E6,,2,E3,B3,B4,E5,,
{4} 8bw4[8:1],8b,8bw4[8:1],8b,1b/7b,2h[8:1]/4h[8:1],5h[8:1]/7h[8:1],
{16} 45,,3,4,2,,12,,38,,6,5,7,,78,,1,6,1,6,1,2,3,4,2,3,4,5,3,4,5,6,4,5,6,7,
{4} 4/8-3[8:1],6-1[8:1],4-8[8:1],3/4>6[4:1],
45,4b<2[4:1],34,4b>6[4:1],45,4b<2[4:1],34,4b>6[4:1],46,4b<2[4:1],24,4b-8[8:1],48,
{32} 2,3,4,5,8,7,6,5,
{4} 1-5[8:1],8b<2[4:1],28,8b>6[4:1],68,8b<2[4:1],28,8b>6[4:1],68,8b,
{16} 1h[8:1]/8h[8:1],,,5h[8:1]/7h[8:1],,,4h[8:1]/5h[8:1],,,2h[8:1]/4h[8:1],,,1,5,3,7,
{4} 1s5[8:3],4,8,3-8[8:1]/7-4[8:1],
{16} 3b/7b`Cf,,,,
{4} ,,,
{1} ,,E
- MASTER追加。 -- 三日月-MIKAZUKI- (2020-08-14 21:14:51)
- Re:MASTER譜面のノーツの配置ミス、SLIDEの速度の修正を行いました。 -- けもがみ (2026-04-14 22:28:56)
最終更新:2026年08月21日 00:32