BASIC
ADVANCED
EXPERT
(162)
{4}1>5[2:1],,,6b,
4x/6hx[4:3],5,,5,3,4,5,6,
3hx[4:3]/5x,4,,4,2x/5x,4x/7x,2x/4x,5x/7x,
3x/6hx[4:3],5,,5,3hx[4:3]/6x,4,,4,
{8} 2hx[4:1]/5hx[4:1],,,4hx[4:1]/7hx[4:1],,,,B2/B3/B6/B7/Chf[2:1],
{1},
{8}3h[2:7]/4,,1,,6,6,6,,5,,8,,2,2,2,,
8,,6,6,5,,7,7,6,,8,,4,,2x/7x,2x/7x,
2h[4:13]/7b,,4,,6,6,6,,3,,7,,1,1,1,,
5,,7,7,6,,8,8,{4}7,4,4-1[8:1]/5-8[8:1],,
2/7h[2:7],5-8[8:1],,1,
{8}8,8,1-4[8:1],,,,3,,5,5,6-1[8:1],,,,2,,
5,,2,2,3,,1b/8b,,
{2}3-1[8:1]/6h[2:3],8-4[8:1],
{4}5-7[8:1],,1,4b/8b,
{2}2-4[8:1]/7h[2:3],5-1[8:1],
{4}8-6[8:1],,4,1b/5b,
,E1f/Cf/E5f,E8,B6/E6,E2,B3/E4,C,B1/B8/E1,
B2/B7,B3/B6,E4/E6,E1/E5,E2/E8,E7,E3,Ch[2:1],,,2,18,
7,5^3[4:1]/6,,,E3,E2/E4,E7,E6/E8,E1,E5,E3f/E7f/Cf,,
3h[2:1]/4,1,4h[4:1],1,3h[4:1],4h[4:1],5h[4:1],6,
5/6h[2:1],8,5h[4:1],8,6,47,38,12,
3h[4:3]/5,5,5,{8}4,5,{4}4/6h[4:3],4,4,{8}5,4,35,5,4,4,6,6,3,3,
{4}2V41[8:3]/7V58[8:3],,,2b/7b,
{8}3x/6x,,18,7,56,,34,2,
18,,78,6,4h[4:1]/5,,1,,3/8^5[8:1],,1,,3,4,5,6,
{4}7x/8x,2x/5x,B1f/B5f/Cf,,
{8}7x/8x,,18,2,34,,56,7,18,,12,3,4h[4:1]/5,,8,,
1^4[8:1]/5,,7,8,1^6[8:1],,3,3,,15,1x/5x,,3x/7x,,1b/8b,,
{16}6,,6,,4,5,4,,6,,6,,57,,,,3,,3,,5,4,5,,3,,3,,24,,,,
{4}6^8[8:1],4,2^4[8:1],8,5x/6x,3x/8x,B4f/B8f/Cf,,
{8}1x/2x,,7,8,16,,2,1,{4}38,45,12,2b/7b,
{8}3h[8:1],4,6h[8:1],5,1-5[8:1],,8x,,
{4}67,45,23,{8}18,2b/7b>6[8:5],{1},
{4}23,18,67,{8}B4/B5,B1/B8/Chf[8:15],{1},,
{4},,8^5[4:1],,4h[1:2],3,,3,,3,{8},3,3,,
{4}5h[2:3],6,,6,,6,4,36,4h[4:7]/5,3,,3,,3,{8},5,5,,
{8}E8,E2,E6,E4,C,,B4/B5/E5,,{4}E2/E8,E3/E7,E4/E6,4>7[4:3],
{4},,,5<2[4:3],{1},{4},,45,2b/7b,
{8}3x/6x,,18,2,34,,56,7,18,,12,3,4/5h[2:1],,8,,
1^4[8:1]/6,,8,,6,5,4,3,{4}1x/2x,4x/7x,E4f/E8f/Cf,,
{8}1x/2x,,18,7,56,,34,2,18,,78,6,4h[4:1]/5,,1,,
8^5[8:1],,2,1,8^3[8:1],,6,6,,48,3x/7x,,1x/5x,,2b/7b,,
{16}45,,6,5,6,,4,5,4,,7,8,7,,,,45,,3,4,3,,5,4,5,,2,1,2,,,,
{8}3^1[8:1],,5,6,7^5[8:1],,1,2,
{4}3x/4x,1x/6x,E2f/E6f/Cf,,{8}7x/8x,,18,2,13,,18,7,
{4}68,18,45,2b/7b,{8}57,6,24,3,8-4[8:1],,1x,,
{4}23,45,67,{8}18,2b<3[8:5]/7b,{1},
{4}67,18,23,{8}B4/B5,B1/B8/Chf[8:15],{1},
{4},,,
{1}8b,,,,,
E
MASTER
Re:MASTER
最終更新:2026年04月12日 09:16