アットウィキロゴ

ブレインジャックシンドローム

アーティスト かいりきベア feat.利香

BPM BASIC ADVANCED EXPERT MASTER Re:MASTER
204 4 7+ 10+ 13 -

EXPERT MASTER Re:MASTER
譜面制作者 サファ太 シチミッピー -

BASIC


ADVANCED


EXPERT

(204)
{4}1b,
7,6,4,35,2,3,5,46,
7,6,4,35,
{8}6h[8:3],,5,5,,47,47,,
{4}7,5,3,24,2,4,6,57,
6h[4:1],5,4[4:1],3>6[2:1],
,,,4x/5x,
3h[2:3]/6,4,4,5,4,4,5x,4x,
3h[4:1]/5h[4:1],,4h[4:1]/6h[4:1],,
E6,E4,B7/B8,B1/B2,
6h[2:1],5,5,45,3h[2:1],4,4x,2x/5x,
3,45,56,7,1h[4:1],,2x/7x,,
6h[2:3],5,5,4,5,5,4,5,
4h[4:1]/6h[4:1],,3h[4:1]/5h[4:1],,
E4,E6,B2/E2,B7/E8,
3h[2:1],4,4,25,6h[2:1],5,5,4x/7x,
8^5[4:1],,1^4[4:1],,5x,6x,7b/8b,1b/2b,
{2}3^6[4:1]/8h[2:1],,
B5/B6/E7,B3/B4/E3,
1h[2:1]/6^3[4:1],,
B3/B4/E3,B5/B6/E7,
1q6[4:1]/2^5[4:1],,
7^4[4:1]/8p3[4:1],,
{4}E1,C,E5,{8}36,36,
,27,27,27,2b/7b,,,,
{4}3x/4x,5x/7x,1x/8x,24,56,38,34,16,
7h[4:1],8h[4:1],1,1s5[2:1]/2,,,,2b/7b,
56,38,34,16,57,45,24,18,
2h[4:1]/7,4,2/7h[4:1],5>7[2:1],,,,3b/6b,
56,78,12,34,57,12,24,78,
7h[4:1],6h[4:1],5,3/4z8[2:1],,,,1b/7b,
34,57,18,24,56,27,34,27,
3h[4:1]/6,2h[4:1],1h[4:1],8,
{8} 7h[4:1]/8h[4:1],,,1h[4:1]/6h[4:1],,,2x/5x,,
3h[2:1],,4,,4,,35,35,,6,6,,57,,8,,
7h[2:1],,5,,5,,46,46,,35,35,,2x/7x,,,,
2h[2:1],,4,,4,,38,38,,7,7,,16,,5,,
34,,56,,45,,36,36,,8,8,1,2b/7b,,3x/5x,3x/5x,
,1,1^4[4:1],,{4}6,6,7,8^5[4:1],3,3,
2,1-5[4:1],7,7,{8}6,6,5,,3h[4:1],,4,,
{4} 35,4^1[4:1],7,7,6,5^8[4:1],2,2,
2h[4:1],4h[4:1],5h[4:1],6,6h[4:1],8h[4:1],1h[4:1],2<3[1:1],
,,,,,,3x/6x,,
E3,E4,E6,E7,Ch[2:1],,,,
7,7h[2:1],6,6h[2:1],5,5h[2:1],4,4,
B3,B1/E2,B6,B8/E8,E5,C,B2/B7,,
3,3h[2:1],2,2h[2:1],1,1h[2:1],8,8,
E8,B5/B6,E2,B3/B4,Chf[1:1],,,,
{2},1x/8x,B3/B4/E3/E4,B5/B6/E6/E7,
7q4[4:1]/8^3[4:1],,B5/B6/E6/E7,B3/B4/E3/E4,
1^6[4:1]/2p5[4:1],,B3/B4/E3/E4,B5/B6/E6/E7,
{4}E1,C,E5,{8}36,36,
,18,18,18,2b/7b,,,,
{4}5x/6x,2x/4x,78,12,45,78,45,12,
3/8h[4:1],7h[4:1],6h[4:1],5z1[2:1],,,,2b/7b,
56,12,34,78,16,34,38,56,
2h[4:1]/7,3h[4:1],4h[4:1],5p8[2:1],,,,8b,
24,56,23,78,45,12,45,17,
3h[4:1]/8,4h[4:1],5h[4:1],6z2[2:1],,,,1b/8b,
24,57,1x/3x,6x/8x,45,12,45,78,
7h[4:1],5h[4:1],4h[4:1],2,
{8}1h[4:1]/2h[4:1],,,3h[4:1]/8h[4:1],,,4x/7x,,
7h[2:1],,8,,8,,56,56,,47,47,,1x/6x,,,,
3h[2:1],,4,,4,,78,78,,35,35,,2x/7x,,,,
7h[2:1],,5,,5,,6,65,,2,24,,4x/5x,,3x/6x,,
12,,78,,18,,27,27,,4,4,5,3b/6b,,,,
{8}B2/B7/Ch[2:1],,,,,,,1x/8x,
,2x/7x,2x/7x,2x/7x,2b/7b,,,4hx[4:1]/5hx[4:1],
{4},4x/5x,3h[4:1],6h[4:1],5,57,18,24,
45,57,45,2x/7x,
{8}E2,E3,E4,E5,E6,E7,E8,Chf[2:1],
{1},,,,,,
E

MASTER

(204)
{1} ,
{8} 6,6h[8:15],,,
{2} 2,
{8} 4,4,,,
{2} 5,
{8} 3,3h[8:7],,,
{2} 4,
{4} 6,2,
{16} 3,4,5,6,
{4} 2b/7b,18,46,
{16} 25,,3,4,
{4} 2-5[8:1],6-1[8:1],3-8[8:1],
{8} 6,6,5,47,,5,3,6,4,7,5,8,47,6,3,25,3,6,
{4} 2x/7x,18,35,
{16} 47,,6,5,
{4} 7-4[8:1],3-8[8:1],6-1[8:1],
{8} 3,3,4,25,,4,6,3,5,2,4,1,25,1,8,47,8,1,2b/7b,,

{4} 6-8[8:1],5,5-3[8:1],
{8} 7,7,
{4} 6-8[8:1],5,5-3[8:1],7,8-5[8:1],4-8[8:1],6-3[8:1],
{8} 1,1,,35,35,6,
{4} 5/6-3[8:1],26,1^4[8:1],
{8} 6,6^1[8:1],,3,3^6[8:1],,7,7^2[8:1],,4,
{4} 4w8[8:1],4,
{8} ,8,8,1,
{4} 2-4[8:1]/5v8[8:1],25,7,1-5[8:1]/7-4[8:1],17,2b/6b,3-1[8:1],4,4-6[8:1],
{8} 2,2,
{4} 3-1[8:1],4,4-6[8:1],2,1-4[8:1],5-1[8:1],3-6[8:1],
{8} 8,8,,46,46,3,
{4} 3-6[8:1]/4,37,8^5[8:1],
{8} 3,3^8[8:1],,6,6^3[8:1],,2,2b^7[8:1],,5,
{4} 5w1[8:1],5,
{8} ,1,1,7,
{4} 5v2[8:1]/8-6[8:1],58,
{8} 4,4,7,7,
{4} 5-2[8:1]/6-1[8:1],56,

{2} 4b/7b,2b/5b,
{6} 47,47,47,36,36,36,
{8} 2h[4:3]/5,,,
{24} E2,B2,B3,
{2} E4,
{6} 25,25,25,36,36,36,
{8} 4/7h[4:3],,,
{24} E8,B7,B6,
{2} E6,
{6} 47,47,47,36,36,36,
{8} 25,3,47,6,25,3,45,4x/5x,,36,36,36,3b/6b,,

{4} 1-6[8:1]/8-6[8:1],1-3[8:1]/8-3[8:1],1w5[8:1]/8,1,3x/7x,
{8} 2-8[8:1],6-4[8:1],2x,6x,,1x,1x/5x,,
{4} 3^6[8:1]/7,8-3[8:1],4-1[8:1],5x,
{8} ,2-5[8:1]/6-1[8:1],1-6[8:1]/5-2[8:1],,,,
{4} Cf,2-5[8:1]/8-4[8:1],28,37,1/2z6[4:1],6z2[4:1],,
{8} ,8x,4x/8x,,
{4} 2/6^3[8:1],1-4[8:1]*-6[8:1],1,3x/7x,
{24} 2b/8b,7x,6x,
{4} 5x,
{24} 1b/7b,2x,3x,
{4} 4x,2b/6b,7-4[8:1]/8-3[8:1],78,1-6[8:1]/2-5[8:1],12,
{8} 7-1[8:1],3-5[8:1],7x,3x,,8x,4x/8x,,
{4} 2/6^3[8:1],1-6[8:1],5-8[8:1],4x,
{8} ,3-8[8:1]/7-4[8:1],4-7[8:1]/8-3[8:1],,,,
{4} Cf,1-5[8:1]/7-4[8:1],17,26,7s3[4:1],3s7[4:1],,
{8} ,1x,1x/5x,,
{4} 3^6[8:1]/7,8-3[8:1]*-5[8:1],8,2x/6x,
{24} 1b/7b,2x,3x,
{4} 4x,
{8} 2b/8b,
{4} 2/8qq8[4:1],1b/8b>8[4:3],
{1} Cf,
{8} ,4,5,3,2/4-1[8:1],,3h[4:1]/4,,8,,46,,35,,26,26,,5,4,6,5-2[8:1]/7,,5/6h[4:1],,1,,35,,46,,37,37,,4,
{4} 4w8[8:1],,36,2b/5b,,4b/7b,
{8} ,35,,45,36,18,2b/7b,,

4x/5x,4x/5x,,16,2,3,47,
{16} 6,5,
{8} 7-4[8:1],7,3-8[8:1],3,6-1[8:1],6,3,3,4,25,,3,6,47,
{16} 6,5,7,,3,4,2,,
{8} 25,3,6,47,6,3,1x/7x,1x/7x,,38,7,6,25,
{16} 3,4,
{8} 2-5[8:1],2,6-1[8:1],6,3-8[8:1],3,6,6,5,47,,6,3,25,
{16} 3,4,2,,6,5,7,,
{8} 47,8,1,25,1,8,2b/7b,2b/7b,,8,8h[4:1],4,3h[4:1],5,6h[4:1],5,3h[4:1],4,6h[4:1],4,3h[4:1],4,4,,5h[8:3]/6,6,6,6,,,3/4h[8:3],3,3,3,,
{16} 5,4,
{4} 5,2x/7x,

{8} 6h[8:3],,5,3h[8:3],,4,6h[8:3],,5,3h[8:3],,4,5-8[8:1],,45,,3h[8:3],,4,6h[8:3],,5,3h[8:3],,4,6h[8:3],,5,4-1[8:1],,45,,
7h[8:3],,5,2h[8:3],,4,7h[8:3],,5,2h[8:3],,4,5-8[8:1],,45,,2h[8:3],,4,7h[8:3],,5,1,1b,
{4} ,,,78,
{8} 2h[8:3]/5,,,
{24} E2,B1,B8,
{2} E8,
{6} 25,25,25,36,36,36,
{8} 4/7h[8:3],,,
{24} E8,B8,B1,
{2} E2,
{6} 47,47,47,36,36,36,
{8} 2h[8:3]/5,,,
{24} E2,B1,B8,
{2} E8,
{6} 25,25,25,36,36,36,
{8} 47,6,25,3,47,6,45,4x/5x,,36,36,36,3b/6b,,

{4} 1-6[8:1]/8-6[8:1],1-3[8:1]/8-3[8:1],1w5[8:1]/8,1,3x/7x,
{8} 7-4[8:1],3-8[8:1],7x,3x,,5x,1x/5x,,
{4} 3/7^2[8:1],4-7[8:1],8-5[8:1],1x,
{8} ,3-8[8:1]/7-4[8:1],4-7[8:1]/8-3[8:1],,,,
{4} Cf,1-6[8:1]/8-6[8:1],8-4[8:1],8,1s5[4:1],5s1[4:1],,
{8} ,7x,3x/7x,,
{4} 2/6^3[8:1],1-4[8:1]*-6[8:1],1,3x/7x,
{24} 2b/8b,7x,6x,
{4} 5x,
{24} 1b/7b,2x,3x,
{4} 4x,2b/6b,1-5[8:1]/2-6[8:1],12,7-3[8:1]/8-4[8:1],78,
{8} 2-5[8:1],6-1[8:1],2x,6x,,4x,4x/8x,,
{4} 2^7[8:1]/6,5-2[8:1],1-4[8:1],8x,
{8} ,2-5[8:1]/6-1[8:1],1-6[8:1]/5-2[8:1],,,,
{4} Cf,2-4[8:1]/8-6[8:1],28,5-3[8:1]*-7[8:1],5bs1[4:1],1s5[4:1],,
{8} ,8x,4x/8x,,
{4} 3^6[8:1]/7,8-3[8:1]*-5[8:1],8,2x/6x,
{24} 1b/7b,2x,3x,
{8} 4x,,2b/8b,
{4} 2/8qq8[4:1],1b/8b>8[4:3],
{1} Cf,
{8} ,4,5,2,1/4-1[8:1],,3h[4:1]/4,,8,,46,,35,,26,26,,5,4,7,5-2[8:1]/8,,5/6h[4:1],,1,,35,,46,,37,37,,4,
{4} 4w8[8:1],,36,46,,35,
{8} 1,1,,37,37,37,
{4} 3-8[8:1]/7-4[8:1],3x/7x,1b/6b,,3b/8b,
{8} 45,45,,18,27,45,3b/6b,,

2x/8x,2x/8x,,17,8,1,25,
{16} 3,4,
{8} 2-5[8:1],2,6-1[8:1],6,3-8[8:1],3,6,6,5,47,,6,3,25,
{16} 3,4,2,,6,5,7,,
{8} 47,8,1,25,1,1,18,2x/7hx[4:1],,
{16} 2<4[4:5],3,
{8} 4,
{1} Cf,
{8} ,,,
{16} B8,C,
{1} B4,,E

Re:MASTER


  • 忠告しときます。公式ページではBPMが180となってましたが実際計ってみたところ全然違ってましたので書いておきます。正しくはBPM204です! -- 三日月-MIKAZUKI- (2020-05-22 20:31:34)
名前:
コメント:

タグ:

+ タグ編集
  • タグ:
最終更新:2026年04月12日 09:24