|
EXPERT |
MASTER |
Re:MASTER |
| 譜面制作者 |
華火職人 |
チャン@DP皆伝 |
- |
BASIC
(185.0){2}4,4,
{1}4,
{2}5,5,
{1}5,
{2}4,4,
{1}4,
{2}5,5,
{1}5b,
{2}4,4,
{2}3,3,
{2}2,2,
{1}1/8,
{2}8,8,
{2}7,7,
{2}6,6,
{1}4/5,
{2}5,5,
{2}6,6,
{2}7,7,
{1}1h[2:1]/8h[2:1],
{2}1,1,
{2}2,2,
{2}3,3,
{1}4h[2:1]/5h[2:1],
{1}6-2[4:3],,
{1}3-7[4:3],,
{1}8-4[4:3],,
{1}1-5[4:3],,
{2}8,8,
{2}7,7,
{2}6,6,
{4}5,5,5,,
{2}4,4,
{2}3,3,
{2}2,2,
{1}1h[2:1]/8h[2:1],
{1}B1,
{1}B2,
{1}B3,
{1}B4,
{1}B5,
{1}B6,
{1}B7,
{1}B8,
{1}E8,
{1}E7,
{1}E6,
{1}E5,
{1}E4,
{1}E3,
{1}E2,
{1}E1,
{1}C1f,
{2}8,8,
{2}7,7,
{4}6,6,6,,
{4}5x,5x,5x,,
{2}4,4,
{2}3,3,
{4}2,2,2,,
{4}1,1,1b,,
{2}2,2,
{2}3,3,
{4}4,4,4,,
{4}5x,4x,5x,,
{2}6,6,
{2}7,7,
{4}8,8,8,,
{4}1,8,1b,,
{1}8h[1:1],,
{1}1h[1:1],,
{1}7h[1:1]/8h[1:1],,
{1}1h[1:1]/2h[1:1],,
{1}3,
{1}3,
{1}4,
{1}4,
{2}5,5,
{2}5,5,
{2}6,6,
{2}6,6,
{1}5b/6b,
{2}4,4,
{2}3,3,
{4}2,2,2,,
{4}1,1,1,,
{2}8,8,
{2}7,7,
{4}6,6,6,,
{4}5,5,4x/5x,,
{4}6,6,6,,
{4}7,7,7,,
{4}8,8,1,1,
{4}8,8,1/8,,
{4}2,2,2,,
{4}3,3,3,,
{4}4,4,5,5,
{4}4,4,4/5,,
{1}Chf[1:1],,
E
ADVANCED
(185.0){1}4x/5hx[1:1],
{1}3h[1:1],
{1}4h[1:1],
{4}3,3,3x/4x,,
{1}5/4h[1:1],
{1}6h[1:1],
{1}5h[1:1],
{4}6,5x/6x,4b/7b,,
{4}6,6,5,,
{4}3,3,4,,
{4}6,6,5,5,
{4}4,3,3/4,,
{4}3,3,4,,
{4}6,6,5,,
{4}3,3,4,4,
{4}5,6,5/6,,
{4}7,6,5,4,
{4}3,3,3x/4x,,
{4}2,3,4,5,
{4}6,6,5x/6x,,
{4}7,6,5,4,
{4}3,2,3,3,
{4}4,5,6,7,
{4}8,1/8,2b/7b,,
{1}1>5[1:1],
{4},,6,6,
{1}7<3[1:1],
{4},,2,2,
{1}1s5[1:1],
{4},,6x,6x,
{4}7,7,8,8,
{4}1x,2x,1x,2x,
{1}8<4[1:1],
{4},,3,3,
{1}2>6[1:1],
{4},,7,7,
{1}8-5[8:5],
{1}4-1[8:5],
{4}8,8,1,1,
{4}1x/8x,1x/8x,2x/7x,2x/7x,
{1}3b/6b,,
{2}E6,E7,
{1}E8,
{2}E2,E3,
{2}E4,E5,
{2}E6,E7,
{1}C1,
{2}E4,E3,
{1}E1/E2,
{2}E8,E7,
{1}E5/E6,
{2}E8,E1,
{2}E2,E3,
{2}E4,E5,
{1}B3/B6/Chf[1:1],,
{4}2,2,1/2,1/2,
{4}7,7/8,1x/6x,,
{4}6h[4:1],5,3h[4:1],4,
{4}4x/5x,3x/6x,2b/7b,,
{4}7,7,7/8,7/8,
{4}2,1/2,3x/8x,,
{4}3h[4:1],4,6h[4:1],5,
{4}4x/5x,3x/6x,2b/7b,,
{4}1,2,3/4,3/4,
{4}2,1,7x/8x,7x/8x,
{4}6,5,3,4,
{4}5x/6x,4x/7x,3b/8b,,
{4}8,7,5/6,5/6,
{4}7,8,1x/2x,1x/2x,
{4}3,4,6,5,
{4}4,3,2,1x/8x,
{1}2b/7b,,
{1}6h[1:2],,
{1}5h[1:2],,
{1}4h[1:1],
{1}3x,
{2}E3,E4,
{1}E5,
{2}E7,E6,
{1}E5,
{4}E4,B4,B5,,
{4}E7,B7,B8,,
{4}B2,B1,B8,B7,
{4}B6,B5,B4,B3,
{1}C1f,
{4}7,7/8,2,1/2,
{4}3,3/4,2x/5x,,
{4}6,5,4,3,
{4}1x/2x,3x/8x,4b/7b,,
{4}2,1/2,7,7/8,
{4}6,5/6,4x/7x,,
{4}3,4,5,6,
{4}7x/8x,1x/6x,2b/5b,,
{4}1,7/8,6,7/8,
{4}1,2,3/4,4/5,
{4}3,1/2,8,1/2,
{4}3/4,2/5,1x/6x,,
{4}8,1/2,3,1/2,
{4}8,7,5/6,4/5,
{4}6,7/8,1,7/8,
{4}6,5,4x/5x,3x/6x,
{1}2b/7b,
{1}C1f/E3/E7,
E
EXPERT
(185)
{4}E2,E8,B2,B7,B3,B6,E4,E6,B4,B5,E3,E7,B1,B8,C,,
6h[2:3],B4,B3,B2,B1,B8,B7,,3h[2:3],B5,B6,B7,B8,B1,B2,,
6,47,3,25,6,47,3,25,{8}3,3,5,,6,6,4,,{4}34,56,2b/7b,,
7,16,2,38,7,16,2,38,{8}2,2,4,,7,7,5,,{4}24,57,1b/8b,,
3h[4:1],1,4h[4:1],1,8h[4:1],5,7h[4:1],5,
4h[4:1],2,5h[4:1],7,3>6[4:1]/6,,,1b/8b,
6h[4:1],8,5h[4:1],8,1h[4:1],4,2h[4:1],4,
8h[4:1],6,1h[4:1],3,7-5[8:1],8-4[8:1],,8b,
{8}3,3,5,,4h[8:1]/6h[8:1],,56,,7,7,8,,2h[8:1]/4h[8:1],,12,,
7,7,5,5,4,4,{4}2>7[4:1],8h[2:1],,,1b/2b,
{8}6,6,4,,3h[8:1]/5h[8:1],,34,,2,2,8,,1h[8:1]/7h[8:1],,78,,
2,2,4,4,5,5,{4}7,2-6[8:1],3-7[8:1],,1b,
{8}3,3,5,,4/6h[4:1],,8,,7,7,1,,2h[4:1]/8,,4,,
3,3,8,8,1,1,5h[1:1],,{4}E7,E3,E1,C,
{8}7,7,1hx[4:1],,5,5,2hx[4:1],,6,6,1hx[4:1],,4,4,2hx[4:1],,
{4}B6/B7,C,B2/B3,E5,6h[4:1],8h[4:1],1h[4:1],3qq5[1:1],
,,,,,E7,C,E3,8qq4[4:3],,,,,E3,C,E7,
1qq5[4:3],,,,,E7,C,E3,8pp4[4:3],,,,,E3,C,E7,
{8}3,3,5,,{4}3h[8:1]/5h[8:1],4h[8:1]/6h[8:1],57,E8,C,E4,
{8}6,6,4,,{4}4h[8:1]/6h[8:1],3h[8:1]/5h[8:1],24,E2,C,E6,
{8}3,3,5,,{4}4h[8:1]/5h[8:1],5h[8:1]/6h[8:1],67,E8,E1,E2,
{8}6,6,4,,{4}4h[8:1]/5h[8:1],3h[8:1]/4h[8:1],23,E2,E1,E8,E3/E7,Chf[4:1],,,
{8}1h[4:1],,8,8-4[8:1],,1x,,2hx[4:1],,3,3,,3-8[8:1]/4-7[8:1],,,,
7,7,8,8,1,1,2,2,{4}7-4[8:1],1-5[8:1],8,3b/8b,
{8}6h[4:1],,8,8-3[8:1],,5x,,4hx[4:1],,3,3,,23,,18,,
3,4,1,1,6,5,8,8,2h[4:1],,4,4h[8:1],,3,,28,
2/8h[4:1],,1,1-5[8:1],,7x,,7hx[4:1],,6,6,,5-2[8:1]/6-1[8:1],,,,
2,2,1,1,8,8,7,7,{4}2-5[8:1],8-4[8:1],1,2b/6b,
{8}3h[4:1],,1,1-6[8:1],,4x,,5hx[4:1],,6,6,,67,,18,,
6,5,8,8,3,4,1>8[2:1],1,{4}8,,,7<8[2:3],1b,,,,,,,,
{2}3h[1:1],4,5^2[2:1],,6h[2:3],5,3,4,3h[1:1],4,5^8[2:1],,
{4}E6,E4,B6,B3,B7,B2,E8,E2,B8,B1,E7,E3,B5,B4,{8}C,,,1x,
{4}1h[1:1],B8,C,B4,5h[1:1],B5,C,B1,7h[4:1],1,2h[4:1],8,7h[4:1]/8h[4:1],,1h[4:1]/2h[4:1],,
45,45,45,2b/7b,
{8}6h[4:1],,5,5h[4:1],,4,,3h[4:1],,1,1,,6h[4:1],,8,,
7,8,6,,2,1,3,,{4}56,34,2b/7b,,
{8}2h[4:1],,1,1h[4:1],,8,,7h[4:1],,5,5,,2h[4:1],,4,,
3,4,2,,6,5,7,,{4}2V41[8:3]/7V58[8:3],,,2b/7b,
{8}5h[4:1],,4,4-8[8:1],,5x,,6hx[4:1],,7,7,,7-4[8:1]/8-3[8:1],,,,
3,3,4,4,5,5,6,6,{4}3-8[8:1],5-1[8:1],4,3b/7b,
{8}2h[4:1],,4,4-7[8:1],,1x,,8hx[4:1],,7,7,,67,,45,,
7,8,5,5,2,1,4>5[2:1],4,
{4}5,,,36,2-4[8:1],1-5[8:1],,3b/7b,
6,47,3,25,6,47,3,25,6,56,3,34,6,56,3,34,
5,45,4,45,5,45,4,4>5[4:7]/5<4[4:7],
{1},,,,,,,,,
E
MASTER
(185.0){8}1-6[8:1],7,1,,8-3[8:1],2,8,,
{8}2-5[8:1],8,2,,7-4[8:1],1,7,,
{8}1-5[8:1],8,1,,8-4[8:1],1,8,,
{16}2,,2,,8,1,,8,1,,8,,1/7,,,,
{8}7p3[8:1],1,7,,2q6[8:1],8,2,,
{8}8p3[8:1],2,8,,1q6[8:1],7,1,,
{8}5q1[8:1],4,5,,3,5,6-2[8:1],6,
{4}4-7[8:1],6-1[8:1],4-8[8:1],6,
{8}1b,1,,2,,3,,4,
{8},5,,6,,7,,8,
{8},1/B5,,2/B6,,3/B7,,4/B8,
{8},5/B1,,6/B2,,7/B3,,8/B4,
{8},1/C1,,2/C1,,3/C1,,4/C1,
{8},5/C1,,6/C1,,7/C1,,8/C1,
{8},1/C1f,,2/C1f,,3/C1f,,4/C1f,
{8},5/C1f,,6/C1,7b,,,,
{8}2-4[8:1]/8-6[8:1],2/8,,,1-3[8:1]/7-5[8:1],1/7,,,
{8}2-4[8:1]/8-6[8:1],2/8,,,1-3[8:1]/7-5[8:1],1/7,,,
{8}2-4[8:1]/7-5[8:1],2/7,,,1-3[8:1]/8-6[8:1],1/8,,,
{16}8,,8,,1,8,,1,8,,1,,2/7,,,,
{8}2-4[8:1]/8-6[8:1],1,,,1-3[8:1]/7-5[8:1],8,,,
{8}2-4[8:1]/8-6[8:1],1,,,1-3[8:1]/7-5[8:1],8,,,
{16}1-3[8:1]/8-6[8:1],,2/7,,,,,,1/7,,1,,8,1,,8,
{4}1x,2x,1x,2x,
{16}5-1[8:1],,4,,5,,,,2,,,1,,,8,,
{16}1-4[8:1],,8,8,1,,,,5,,,3,,,4,,
{16}4-8[8:1],,5,,4,,,,7,,,8,,,1,,
{16}8-5[8:1],,1,1,8,,,,4,,,6,,,5,,
{16}5-1[8:1],,4,,5,,,,B2,,,B3,,,B4,,
{16}1-4[8:1],,8,8,1,,,,B5,,,B6,,,B7,,
{16}4-8[8:1],,5,,4,,,,B7,,,B6,,,B5,,
{8}1x,7,2x,7,1x,8,2x,8,
{16}2,,7,,1-3[8:1],,,,1-7[16:1],,,1,,,2,,
{16}6,,4,5,4-2[8:1],,,,4-6[16:1],,,4,,,3,,
{16}7,,2,,8-6[8:1],,,,8-2[16:1],,,8,,,7,,
{16}3,,5,4,5-7[8:1],,,,5-3[16:1],,,5,,,6,,
{16}2,,7,,1^3[8:1],,,,1^7[16:1],,,1-5[16:1],,,1,,
{16}6,,4,5,4^2[8:1],,,,4^6[16:1],,,4-8[16:1],,,4,,
{16}7,,2,,8-6[8:1],,,,8-2[16:1],,,8-4[16:1],,,8,,
{8}1x,5,2x,6,1x,7,2x,8,
{2}1x/C1f,2,
{4}3,B6,B7,B8,
{2}1,2,
{4}3,B1,B2,B3,
{2}1x,2x,
{4}3x,B4/B8,B3/B7,B2/B6,
{2}1x,2x,
{4}3x,B4/B8,B3/B7,B2/B6,
{16}8b,,4,,6,,,,4,,5,4,,5,4,,
{16}5,,3,,5,,,,3,,4,3,,4,3,,
{16}6,,4,,6,,,,4,,5,4,,5,4,,
{16}5,,3,,5,,,,4,,5,4,,5,4,,
{16}1b,,5,,3,,,,5,,4,5,,4,5,,
{16}4,,6,,4,,,,6,,5,6,,5,6,,
{16}2,,5,,2,,,,6,,3,6,,3,6,,
{16}2,,8,,2,,,,7,,2,7,,2,7,,
{16}1x-5[8:1],,,,5xw1[8:1],,,,,C1f,,,,,,,
{8}7,1x/8x,2,1x/8x,7,1x/8x,2,1x/8x,
{8}6,1x/8x,3,1x/8x,6,1x/8x,2x/7x,,
{8}3,3,8,8,1/2,{983}8x,,,,,,,,,,,,,,,,,,,,,,,,,,,,,,,,,,,,,,,,,{625}7x,,,,,,,,,,,,,,,,,,,,,,,,,,{983}6x,,,,,,,,,,,,,,,,,,,,,,,,,,,,,,,,,,,,,,,,,{8}5x/2-4[8:1],2,
{8}8-6[16:1],8,1-5[8:1],1,7,7,7x,,
{8}1,7x/8x,6,7x/8x,1,7x/8x,6,7x/8x,
{8}4,1x/2x,7,1x/2x,4,1x/2x,3x/8x,,
{8}1,1,2,2^5[8:1],1/2,{983}E1,,,,,,,,,,,,,,,,,,,,,,,,,,,,,,,,,,,,,,,,,{625}B8,,,,,,,,,,,,,,,,,,,,,,,,,,{983}B7,,,,,,,,,,,,,,,,,,,,,,,,,,,,,,,,,,,,,,,,,{8}E7,,
{8}7,7x/8x,2,1x/2x,7,7x/8x,1x/6x,,
{8}4p8[8:1],4,5q2[8:1],5,3^8[8:1],3,6q2[8:1],6,
{8}4p7[8:1],4,5<1[8:1],5,3p7[8:1],3,,,
{8}6,6,1,1,7/8,{983}1x,,,,,,,,,,,,,,,,,,,,,,,,,,,,,,,,,,,,,,,,,{625}2x,,,,,,,,,,,,,,,,,,,,,,,,,,{983}3x,,,,,,,,,,,,,,,,,,,,,,,,,,,,,,,,,,,,,,,,,{8}4x/7-5[8:1],7,
{8}1-3[16:1],1,8-4[8:1],8,2,2,2x,,
{8}5q1[8:1],5,4p7[8:1],4,6^1[8:1],6,3p7[8:1],3,
{8}5q2[8:1],5,4>8[8:1],4,6q2[8:1],6,,,
{8}8,8,7,7^4[8:1],7/8,{983}E1,,,,,,,,,,,,,,,,,,,,,,,,,,,,,,,,,,,,,,,,,{625}B1,,,,,,,,,,,,,,,,,,,,,,,,,,{983}B2,,,,,,,,,,,,,,,,,,,,,,,,,,,,,,,,,,,,,,,,,{4}E3,
{8}1/6h[1:1],,2,2,,1,,1,
{1}1<1[4:7],,,,
{1}1h[2:1]/B5,
{1}2h[2:1]/B6,
{1}3h[2:1]/B7,
{1}4h[2:1]/B8,
{16}6b,,5,,6,5,,,4,,4,4,,6,6,,
{16}3,,4,,3,4,,,5,,5,5,,3,3,,
{16}6,,4,,6,4,,,3,,3,3,,6,6,,
{16}3,,5,,3,5,,,6,,6,6,,3,3x,,
{16}6x,,5,,6,5,,,4,,4,4,,6,6,,
{16}3,,4,,3,4,,,5,,5,5,,3,3,,
{16}6x,,4,,6,4,,,3,,3,3,,6,6,,
{16}2x,,7,,2,7,,,8x,,8,8,,1,1,,
{8}1x,2,8x,7,1x/2x,2,7x/8x,7,
{8}2h[4:1],,8,8h[4:1],,1h[4:1],,8h[4:1],
{8},2,1,8,1h[4:1],,7,7,
{8}3,3,8,8,1/2,{983}8x,,,,,,,,,,,,,,,,,,,,,,,,,,,,,,,,,,,,,,,,,{625}7x,,,,,,,,,,,,,,,,,,,,,,,,,,{983}6x,,,,,,,,,,,,,,,,,,,,,,,,,,,,,,,,,,,,,,,,,{8}2/5x,,
{8}2-5[8:1],2,1,,7-4[8:1],7,8,,
{8}1b/2b,,8,8h[4:1],,1,,7b/8b,
{8},2,1,8,1b/2b,,7b/8b,,
{8}4b/5b,3,6,1,1b/8b,{983}1x/8x,,,,,,,,,,,,,,,,,,,,,,,,,,,,,,,,,,,,,,,,,{625}2x/7x,,,,,,,,,,,,,,,,,,,,,,,,,,{983}3x/6x,,,,,,,,,,,,,,,,,,,,,,,,,,,,,,,,,,,,,,,,,{16}4x/5x,,,,
{16}4,5,4,5,3,6,3,6,{641}2x,,,,,,,,,,,,,,,,,,,,{639}1x,,,,,,,,,,,,,,,,,,,,8x,,,,,,,,,,,,,,,,,,,,{641}7x,,,,,,,,,,,,,,,,,,,,6x,,,,,,,,,,,,,,,,,,,,{639}5x,,,,,,,,,,,,,,,,,,,,4x,,,,,,,,,,,,,,,,,,,,{641}3x,,,,,,,,,,,,,,,,,,,,{8}1b/2b,,
{8}7h[4:1],1b,3h[4:1],1b,7h[4:1],1b,3h[4:1],1b,
{8}6h[4:1],1b,4h[4:1],1b,6h[4:1],1b,C1f,,
{8}2,2,5,5,3x/4x,{983}3x/4x,,,,,,,,,,,,,,,,,,,,,,,,,,,,,,,,,,,,,,,,,{625}2x/5x,,,,,,,,,,,,,,,,,,,,,,,,,,{983}1x/6x,,,,,,,,,,,,,,,,,,,,,,,,,,,,,,,,,,,,,,,,,{8}7x/8x-4[8:1],,
{8}3-8[8:1],3,7-5[8:1],7,4-8[8:1],4,6x,,
{8}6h[4:1],8b,2h[4:1],8b,6h[4:1],8b,2h[4:1],8b,
{8}5h[4:1],8b,3h[4:1],8b,5h[4:1],8b,C1f,,
{8}7,7,4,4,5x/6x,{983}5x/6x,,,,,,,,,,,,,,,,,,,,,,,,,,,,,,,,,,,,,,,,,{625}4x/7x,,,,,,,,,,,,,,,,,,,,,,,,,,{983}3x/8x,,,,,,,,,,,,,,,,,,,,,,,,,,,,,,,,,,,,,,,,,{8}2x/1x-5[8:1],,
{8}6-1[8:1],6,2-4[8:1],2,5-1[8:1],5,3,3,
{16}8x-4[8:1],,,,4xw8[8:1],,,,,C1f,,,1x/5x,2x/6x,3x/7x,4x/8x,
{1}1x/5x,
E
Re:MASTER
最終更新:2022年10月01日 16:21