アットウィキロゴ

Entrance

アーティスト Ice

BPM BASIC ADVANCED EXPERT MASTER Re:MASTER
180 4 8 11+ 13+ -

EXPERT MASTER Re:MASTER
譜面制作者 某S氏 隅田川星人 -

BASIC

(180)
{1}4h[1:1],,5h[1:1],,{2}4,4,4,,5,5,5,,4,4,5,5,45,45,4b/5b,,
{4}3,,3,,3,3,3,,2,,2,,2,2,2,,1,,1,,1,1,1,,8,,8,,8,1,8b,,
7,,7,,7,7,7,,6,,6,,6,6,6,,5,,5,,5,5,5,,4,,4,,4,5,4b,,
{1}4-1[4:3],,{2}8,8,1h[2:1]/7h[2:1],,{1}8-5[4:3],,{2}4,4,3h[2:1]/5h[2:1],
5,5,46,,4,4,35,,4,4,5,5,6,6,57,,{1}B7,B6,B5,B4,B3,B2,1hx[2:3]/8hx[2:3],,
{4}1,1,1,,2,2,2,,3,3,3,,4,4,4x/5x,,5,5,5,,6,6,6,,7,7,7,,18,18,1b/8b,,
7,7,7,,6,6,6,,5,5,5,,4,4,3x/5x,,3,3,2,2,1,1,8,8,18,18,18,,
{1}Chf[1:1],,,,,
E

ADVANCED

(180.0){1},
{1}4hx[2:3],
{4}5,5,5,,
{1}5h[2:3],
{4}4,4,4,,
{1}3h[2:3],
{4}4,4,4,,
{1}5h[1:1]/6h[1:1],
{2},4x/7x,
{1}8x/7hx[2:3],
{4}8,8,8,,
{1}1/2h[2:3],
{4}1,1,1b,,
{1}1/8h[2:3],
{4}1,1,1,,
{1}1-4[4:3]/8-5[4:3],
{2},3x/6x,
{4}3,3,3/4,,
{4}2,2,2/4,,
{4}3,3,3/4,,
{4}5,4,4x/5x,,
{4}6,6,5/6,,
{4}7,7,5/7,,
{4}6,6,5/6,,
{2}4h[4:1]/5h[4:1],3b/6b,
{4}2,2,1/2,,
{4}3,3,3/4,,
{4}2,2,1/2,,
{4}8,1,1x/8x,,
{4}7,7,7/8,,
{4}6,6,5/6,,
{4}4,4,5,5,
{4}4h[4:1]/5h[4:1],,3x/6x,3x/6x,
{1}7b/2bV48[4:5],,
{1}7V51[4:5],,
{1}2q6[4:3],
{2},7,
{1}7p3[4:3],
{2},2x/4x,
{2}E4,B3,
{1}B2/E3,
{2}E6,B6,
{1}B7/E7,
{2}E5,C1,
{1}E1,
{1}B2/B7/Ch[1:1],
{2},1x/8x,
{2}2hx[2:1],3h[2:1],
{2}4hx[2:1],5h[2:1],
{2}6hx[2:1],7hx[2:1],
{2}8x,1x/6x,
{4}B6,B7,B8,B1,
{4}B2,B3,B4/B5,,
{1}B2/B7/Chf[2:3],,
{4}1x/8x,1x/8x,2,3/4,
{4}4/5,4/5,6,7/8,
{4}1/6,1/6,2/7,2/7,
{4}3/8,3/8,1b/2b,,
{4}3x/4x,2,3/4,2,
{4}5/6,7,5/6,7,
{4}4/7,4/7,3/6,3/6,
{4}2h[4:1]/5h[4:1],,1b/8b,3b/6b,
{4}5/7,6,4/5,3,
{4}2/4,1,1/8,2/7,
{4}5/6,4/5,3/4,1,
{4}2/4,3/5,1b/7b,,
{4}4x/5x,5/7,4x/5x,2/4,
{4}3x/6x,7/8,3x/6x,1/2,
{4}1/2,3/4,5/6,7/8,
{4}5/6,3/4,1/2,1/8,
{8}2bV41[8:13]/7bV58[8:13],,,,,,,{1},,
E

EXPERT

(180)
{4}3h[4:7]/4,4,5,5,4,4,5,5,
6h[4:7]/5,5,4,4,5,5,4,4,
3h[4:7]/5,5,4,4,5,5,4,4,
6h[4:3]/4,4,5,5,,,{12}4,5,4,5b,,,
{4}4,45,4,34,4,45,4,34,5,45,5,56,5,4-1[8:1]/5,5-8[8:1],,
4,34,4,45,5,56,5,45,{12}4,,5,5,,3,3,,6,6,,2,2,,7,7,,1,1,8,1,8b,,,
2-5[8:1],,2,1,,,7-4[8:1],,7,8,,,2-5[8:1],,2,1,,,{4}7,68,
{12}6-1[8:1],,6,5,,,3-8[8:1],,3,4,,,6-1[8:1],,6,5,,,{4}3,24,
{12}2-7[8:1],,2,5,,,6-3[8:1],,6,1,,,2-7[8:1],,2,5,,,{4}6,57,
{12}7,,7,6,,6,{4}5,45,{12}3,,3,2,,2,{4}1,1x/8x,
{12}7h[6:1],,5,5h[6:1],,6,6h[6:1],,4,4h[6:1],,5,
5h[6:1],,3,3h[6:1],,4,{4}4-8[8:1],2,
{12}2h[6:1],,4,4h[6:1],,3,3h[6:1],,5,5h[6:1],,4,
4h[6:1],,6,6h[6:1],,5,{4}5-1[8:1],7,
{12}7h[6:1],,5,5h[6:1],,3,3h[6:1],,1,1h[6:1],,8,
8h[6:1],,6,6h[6:1],,4,{4}4-8[8:1],3,
{12}4,5,4,5,4,5,3,6,3,6,3,6,{4}4h[4:1],5h[4:1],{12}4,5,4,5b,,,
{4}B3/B4,,B5/B6,,B3/B4,,B5,B6,E7/E8,,B4,B3,E2/E3,,B3,B4,
B5/B6,,B3/B4,,B5/B6,,B4,B3,E2/E3,,B5,B6,E7/E8,,{12}6,5,6,5hx[4:15],,,
{4}4,4,4,4,6,6,6,6,3,3,3,3,7,7,7h[4:1],1x,
1/Chf[1:3],1,2,2,3,3,4,4,3,3,2,2,1b,,{12}1,8,1,8x,,,
{4}2h[2:1]/5h[4:3],,,2,4h[4:3]/7h[2:1],,,7,
3h[4:1]/5h[6:1],5,4h[6:1]/6h[4:1],4,3h[4:1]/4h[6:1],4,5h[6:1]/6h[4:1],5,
{12}4x,,5,5x,,4,4x,,5,5x,,4,5x,,5,4x,,4,5x,,5,4x,,4,
{2}4>5[4:3]/5<4[4:3],,,B3f/B6f/Cf/E3f/E7f,
{12}2-5[8:1],,8,8,,7,7-4[8:1],,1,1,,2,2-5[8:1],,8,8,,7,1,8,1,8x,,,
6,,6,5,,5,4,,,3x/5x,,,3,,3,4,,4,5,,,4x/6x,,,
6-1[8:1],,4,4,,3,3-8[8:1],,5,5,,6,6-1[8:1],,4,4,,3,5,4,5,4x,,,
2,,2,1,,1,8,,,1x/7x,,,7,,7,8,,8,1,,,2b/8b,,,
2-7[8:1],,5,5,,6,6-3[8:1],,1,1,,2,2-7[8:1],,5,5,,6,4,5,4,5x,,,
6,,6,5,,5,4,,4,3,,3,2,,2,1,,1,8,,,1x/7x,,,
1x/2x,,78,7x/8x,,34,3x/4x,,56,5x/6x,,24,2x/4x,,57,5x/7x,,13,1x/3x,,57,5b/7b,,,
1x,8,2,7,3,6,4,5,3,6,2,7,
{2}1hx[2:1],Chf[2:1],1b,,,,,,,,,
E

MASTER

(180){16}
5b/4h[4:1],,,,5,,,4h[4:1],5,,,,5,,,4h[16:13],
5,,,,5,,,,5,,,,5,,,,
5/4h[4:1],,,,5,,,4h[4:1],5,,,,5,,,4h[16:13],
5,,,,6,,,,7,,,,{12}8x,8x,8x,
{16}1x/8xh[4:1],,,,1,,,8h[4:1],1,,,,1,,,8h[16:13],
1,,,,1,,,,1,,,,1,,,,
1/8h[4:1],,,,1,,,8h[4:1],1,,,,1,,,8h[12:4],
Cf,,,,,,,,{12}7,6,5,1,2,3,
{16}4b/8h[4:1],,,,2,,,8h[4:1],3,,,,1,,,8h[16:13],
4,,,,2,,,,3,,,,1,,,,
4/8h[4:1],,,,2,,,8h[4:1],3,,,,1,,,8h[32:17],
5,,,,5h[32:7],,,,{32}4x/7x,3x/6x,2x/5x,1x/4x,,,,,1b/4b,,,,,,,,
{16}5/1h[4:1],,,,7,,,1h[4:1],6,,,,8,,,1h[16:13],
5,,,,7,,,,6,,,,8,,,,
E3/E7,,,,E4/E8,,,,E1/E5,,,,E2/E6,,,,
{12}8,,8,5,,5,6,5,6,3,4,3,
{4}7-3[4:1],3-7[4:1],8,3,
3^6[4:1],6pp3[8:3],7,4,
6-2[4:1]x,2-5[4:1],5pp1[4:2],2,
3,3,{12}3,,3,1,,1,
{4}2-6[4:1],6-2[4:1],1,6,
6^3[4:1],3qq6[8:3],2,5,
3-7[4:1]x,7-4[4:1],4qq8[4:2],7,
6,6,{12}6,5,7,3,4,2,
{4}7-4[4:1],4-8[4:1],8-3[4:1],3-7[4:1],
7pp4[8:4],4,3,2,
3-8[4:1],8-4[4:1],6,6,
3/5,1h[32:7]/4h[32:7],{32}2x/5x,3x/6x,4x/7x,5x/8x,,,,,5b/8b,,,,,,,,
{4}7-4[4:1],4-8[4:1],8-3[4:1],3-7[4:1],
7qq1[8:4],4,3,3,
{12}2,,2,8,,8,4,,4,6,,6,
5/6,,3,3/4,,6,3,4,3,6,5,6,
{4}4>8[1:1],,6,,
8q5[1:1],,6,,
5>1[1:1],,6,,
8h[4:1],,{12}6,,6,1,,1,
{4}5<1[1:1],,3,,
1p4[1:1],,3,,
4<8[1:1],,3,,
1h[4:1],,{12}6,5,7,3,4,2,
{4}5s1[1:1],3,3,3,
3,3,3/4,4/5,
4z8[8:5]/5,6,6,6,
6,4h[32:7]/5h[32:7],{32}3x/6x,2x/7x,1xh[32:5]/8xh[32:5],,,,,,2x/7x,3x/6x,4x/5x,,,,,,
{4}4q1[8:4],5,6,7,
8q5[8:4],4,3,2,
{12}3,4,3,5,2,5,1,6,1,7,8,7,
1,,1,4,,4,3,3,3,6,6,6,
B1/B8,6,5,6,,,3,4,2,6,5,7,
B1/B8,6,5,6,,,3,4,2,6,5,7,
B1/B8,6,5,6,,,3,4,2,6,5,7,
B1/B8,6,5,6,,,3,4,2,6,5,7,
3b,5,1,6b,4,8,3b,5,1,6b,4,8,
3b,5,B2/E2,6b,4,B7/E8,3b,5,B2/E2,6b,4,B7/E8,
2h[12:1]/6h[12:1],,3h[12:1]/7h[12:1],,4h[12:1]/8h[12:1],,1h[12:1]/5h[12:1],,2h[12:1]/6h[12:1],,3h[12:1]/7h[12:1],,
{32}4,,3,,2,,1,,8,,7,,6,,5,,1,2,3,4,5,6,7,8,1b/C,,,,,,,,
{24}3,,4,,2,,7,,8,,6,,2,,1,,3,,6,,5,,7,,
3,,4,,2,,6,,8,,6,,8b,1,2,3,4,5,1b,8,7,6,5,4,
2,,8,,B3/E4,,7,,1,,B6/E6,,2,,8,,B3/E4,,7,,1,,B6/E6,,
1b,2,3,4,5,,1b,8,7,6,5,4,2h[8:1]/3h[8:1],,,,,,1b/5b,,,,,,
6,,5,,7,,2,,1,,3,,7,,8,,6,,3,,4,,2,,
6,,5,,6,,3,,1,,3,,1b,8,7,6,5,4,8b,1,2,3,4,5,
7,,1,,B5/E6,,2,,8,,B4/E4,,7,,1,,B5/E6,,2,,8,,B4/E4,,
7,,8,,5,,3,,5,,4,,{32}3x/6x,2x/7x,1xh[32:5]/8xh[32:5],,,,,,2x/7x,3x/6x,4x/5x,,,,,,
{24}6,,5,,7,,2,,1,,3,,7,,8,,6,,3,,4,,2,,
6,,5,,6,,3,,1,,3,,1b,8,7,6,5,4,8b,1,2,3,4,5,
7,,1,,B5/B6,,2,,8,,B3/B4,,7,,1,,B5/B6,,2,,8,,B3/B4,,
8b,7,6,5,4,,8b,1,2,3,4,5,7h[8:1]/6h[8:1],,,,,,8b/4b,,,,,,
6,,4,,8,,3,,5,,1,,6,,4,,8,,3,,5,,1,,
6b,,4,,B1/B8/E1,,3,,5,,B1/B8/E1,,6b,,4,,B1/B8/E1,,3,,5,,B1/B8/E1,,
7b,,5,,6,,2b,,4,,3,,8b,,6,,7,,1b,,3,,2,,
8b,7,6,1b,2,3,7b,6,5,2b,3,4,{32}8b,7,6,5,4,3,2,1,8b,7,6,5,4,3,2,1,8b<1[4:7]/Cf,
E

Re:MASTER


名前:
コメント:

タグ:

+ タグ編集
  • タグ:
最終更新:2026年03月25日 18:25