アットウィキロゴ

封焔の135秒

アーティスト 大国奏音

BPM BASIC ADVANCED EXPERT MASTER Re:MASTER
200 5 8+ 12+ 14+ -

EXPERT MASTER Re:MASTER
譜面制作者 はっぴー 7.3GHz vs Phoenix -

BASIC


ADVANCED


EXPERT


MASTER

(200)
{4}3,4,5,{32}E7,B6,,,,,,,{8}4h[4:3],,,,,,5,4,
{4}6,5,4,3,4h[2:1],5,6,{8}4,5,
{4}46,5,34,3,34,5,46,6,56,4,35,2,2/5h[4:1],{32}E3,B3,B4,,,,,,{8}6,6,5,5,
{4}4/8^5[2:1],3,2,1,1^4[2:1]/5,6,7,8,4/8^5[2:1],3,2,1,1-5[2:1]/5,,,,
4^1[2:1]/8,7,6,5,1/5^8[2:1],2,3,4,
{1}4pp2[4:5]/8pp6[4:5],,5w1[8:3],{12}7,5,6,2,4,3,8,6,7,1,3,2,
{2}3b-8[8:1]/7b-4[8:1],{8}26,2,28,2,24,2,26,2,28,2,2/Cf,,
{2}2b-5[8:1]/6b-1[8:1],{8}3/7h[16:1],7h[16:1],1/7h[16:1],7h[16:1],5/7h[16:1],7h[16:1],3/7h[16:1],7h[16:1],1/7h[16:1],7h[16:1],7/Cf,,
{2}4b-1[8:1]/8b-5[8:1],{8}2b/6,2b,2b/4,2b,2b/7,2b,2b/3,2b,3b/6b,2b/7b,1b/8b,,
7^5[8:1],8,7,1,7-3[8:1],4,7,5h[4:1],,8,27,36,4-1[8:1]/5-8[8:1],,45,,
{8}3b-8[8:1]/7b-4[8:1],,3x/7x,,2/6-4[8:1],2,26,2,2/7-5[8:1],2,27,2,2/8-4[8:1],2,28`Cf,,
2b-5[8:1]/6b-1[8:1],,2x/6x,,3-5[8:1]/7h[16:1],7h[16:1],3/7h[16:1],7h[16:1],2-4[8:1]/7h[16:1],7h[16:1],2/7h[16:1],7h[16:1],1-5[8:1]/7h[16:1],7h[16:1],1/7`Cf,,
4b-1[8:1]/8b-5[8:1],,4x/8x,,2b/6-4[8:1],2b,2b/6,2b,2b/3-7[8:1],2b,2b/3,2b,1b/8b,2b/7b,3b/6b,,
57,6,24,3,58,6,14,3,68,57,46,35,{32}2b,3,4,5,6,7,8,1,{4}2b/6b,
{16}4x/8x,,7,5h[8:1],,6,4h[8:1],,5,3h[8:1],,4,{8}1,28,
{16}2h[8:1],,4,3h[8:1],,5,4,,{2}5v2[8:1]/7v2[8:1],
{16}4x/8x,,2,4h[8:1],,3,5h[8:1],,4,6h[8:1],,5,{8}8,
17,{16}7h[8:1],,5,6h[8:1],,4,5,,{2}2v7[8:1]/4v7[8:1],
{16}1x^6[8:1]/6x,2x,3x,4x,5x<3[4:1],4x,3x,2x,{4}1x,4,
{16}3x/8x^3[8:1],7x,6x,5x,4x>6[4:1],5x,6x,7x,{4}8x,5,
{16}17,6,5,4,1,2,3,4,8,7,6,5,1,2,3,4,
8,6,8,5,8,4,8,3,{32}8,7,6,5,4,3,2,1,{4}8b/4b,
{16}15,,2,4h[8:1],,3,5h[8:1],,4,6h[8:1],,5,{8}8,17,
{16}7h[8:1],,5,6h[8:1],,4,5h[8:1],,3,4,3,,{4}25,
{16}1x/6x,,7,5h[8:1],,6,4h[8:1],,5,3h[8:1],,4,{8}1,28,
{16}2h[8:1],,4,3h[8:1],,5,4h[8:1],,6,5,6,,{4}47,
{16}3x/8x^3[8:1],7x,6x,5x,4x>6[4:1],5x,6x,7x,{4}8x,Cf,
{16}1x^6[8:1]/6x,2x,3x,4x,5x<3[4:1],4x,3x,2x,{4}1x,Cf,
{16}1b,8,1,8,1b,8,1,8,{24}2b,3,4,8b,7,6,1b,2,3,7b,6,5,
{32}1b/4hx[32:19],2,3,,5,6,7,8,1b,2,3,,5,6,7,8,1b,2,3,,5,6,7,8,{4}1b/5b,
{16}3b/8b,,2,1,2,,3b/8b,,6,5,6,5,7,4,7,,
1b/6b,,7,8,7,,1b/6b,,3,4,3,4,2,5,2,,
3b/8b,,2,1,2,,3b/8b,,6,5,7,4,6,5,7,,
1b/6b,,7,8,7,,1b/6b,,3,4,2,5,3,4,3,,
2b/5b,,3,4,3,,2b/5b,,6,1,7,2,8,3,1,,
4b/7b,,6,5,6,,4b/7b,,3,8,2,7,1,6,8,,
2b/5b,,3,4,3,,2b/5b,,6,1,7,2,8,3,1,,
4b/7b,,6,5,6,,4b/7b,,{12}1x/5x,26,37,4x/8x,37,26,
{1}1b/5b<4[4:11],,,{2},45,
7qq4[2:3],E2,E4,B1/B8,{1}2pp5[2:3]/B4/B5/E5,B1/B8/E1,
{4}56,6,6,{12}6,4,5,{4}3,3,3,{12}3,5,4,
{4}6,6,6,{12}6,4,5,3,,,3,5,4,6,4,5,3,5,4,
{4}36,56,46,36,2h[4:1]/6,6,3h[4:1]/6,6,6/Ch[4:7],6,6,6,7,7,8,8,
{8}1/8h[1:1],1,1,1,1,1,1,1,{12}1,8,2,7,3,6,4,5,3,6,2,7,{1}1bV37[4:3]/8bV62[4:3],{8},,,,,34,56,18,
{4}3-8[8:1]/7-4[8:1],37,{8}26,{24}26,37,48,{4}15,
{8}3/8-4[8:1],4-8[8:1]/7,38,2,{32}1,2,3,4,5,6,7,8,{4}1b/5b,
{8}3-8[8:1]/6,4,3/6-1[8:1],5,36,4,2-6[8:1]/8,1,{4}2/7-3[8:1],1w5[8:1]/7,1b,{24}2,3,4,7,6,5,
{16}2h[8:1],,1,2,1,,38,,2,4,3,5,4,6,5,7,1,4,3,8,5-2[8:1],6,4,7,{4}5b-8[8:1],1b/5b,
{16}2/6V48[8:1],,,4,6,,3,,2V84[8:1],,,8,2,,6,,
{8}6,78,12,34,{16}6,5,6,5,{24}8,7,6,2,3,4,
{4}1x-6[8:1]/5x-2[8:1],15,{8}37,{24}37,26,15,{4}48,
{8}1-5[8:1]/6,2/5-1[8:1],16,7,{32}8,7,6,5,4,3,2,1,{4}4b/8b,
{8}3/6-1[8:1],5,3-8[8:1]/6,4,35,6,37,48,{4}1x-6[8:1]/5x-2[8:1],1x^4[8:1]/5x^8[8:1],1x-5[8:1]/5x-1[8:1],1b/5b`Cf,
{16}38,,2,1,2,,34,,6,8,7,1,8,2,1,3,4,2,5,3,6,4,7,5,{48}7x,E7,B6,B5,E5,,2x,E3,B3,B4,E5,,{4}Cf,
{16}1b/7b,,8,8,8,,2b/6b,,1,4,3,7,5,6,1,,2b/8b,,1,1,1,,3b/7b,,8,5,6,2,4,3,8,,
1b/7b,,8,8,8,,2b/6b,,1,4,3,8,5,6,1,,2b/8b,,1,1,1,,3b/7b,,{12}1x/5x,15,15,4x/8x,48,48,
{16}1x/5x,2,3,4,58,7,6,5,{32}2x,3,2,,{16}8,1,8,1,8,,
4x/8x,7,6,5,14,2,3,4,{32}7x,6,7,,{16}1,8,1,8,1,,
1x/5x,26,37,48,1,2,3,4,{24}1b,5,1b,5,1b,5,1b,5,1b,5,1b,5,{2}1bw5[8:1],{4}8bw4[8:1],Cf,
{48}1b,2b/8b,3b/7b,4b/6b,5b>5[3:8]*<5[3:8],,,,,,,,{4},,,{1},,,
(160)C,{4}3/6h[2:1],,5h[4:1],4h[4:1],{2}3h[2:1],6h[2:1],
{32}3,4,5,6b-3[32:85]*-3[32:85],{1},,,,,,,
E

Re:MASTER


  • こちらの譜面、タッチノーツを通常ノーツに変えたバージョンを作ることは可能でしょうか -- 名無しさん (2020-09-06 00:56:05)
  • え、どゆことですか?どうやってこれをスタンダート譜面にすればよいのでしょう?(例えば、どこのタッチノーツをどこのタップノーツに充てるか、など…。) -- 嵐雅 (2021-01-10 21:14:02)
  • 配置ミス、HOLDの長さ、スライドの速さ、BPMを修正しました。 -- けもがみ (2026-01-18 09:21:13)
名前:
コメント:

タグ:

+ タグ編集
  • タグ:
最終更新:2026年03月28日 18:49