BASIC
(125.0){1},,,,,
{1}4,
{1}4,
{1}5,
{1}4x/5x,
{2}4,4,
{1}4,
{2}3,3,
{1}3,
{2}2,2,
{1}2,
{2}1,1,
{1}1/8,
{1}7,
{1}7,
{2}6,6,
{4}6,6,6,,
{2}5,5,
{2}4,4,{1},
{1}4h[2:1]/5h[2:1],
{1}B3,
{1}B2,
{1}B1,
{1}B8,
{1}B7,
{1}B6,
{1}Chf[1:1],,
{2}1,1,
{4}2,2,2,,
{2}3,3,
{4}4,4,4b,,
{2}5,5,
{4}6,6,6,,
{2}7/8,7/8,
{1}1-5[4:3],,
{1}8-4[4:3],,
{1}2-5[4:3],,
{1}7-4[4:3],,
{1}3,
{1}4,
{1}5,
{2}6,6,
{1}5h[1:1],,
{1}4h[1:1],,
{1}B5,
{1}B6,
{1}B7,
{1}B1/B8,
{1}B2,
{1}B3,
{1}Ch[1:1],,
{1}1hx[2:1],
{1}8hx[2:1],
{1}1x/8x,
{2}1/8,1b/8b,
{4}2,2,2,,
{4}3,3,4,4,
{1}5h[2:1],
{4}4,4,4,,
{4}5,5,5,,
{2}5/6,5/6,
{4}4,4,5,5,
{1}3x/6x,
E
ADVANCED
(125.0){1},
{2}B7,B5,
{1}B3,
{2}B2,B4,
{1}B6,
{2}B7,B5,
{2}B4,B2,
{1}Ch[1:1],,
{4}7,7,7x/8x,,
{4}2,2,1x/2x,,
{4}3,3,4,4,
{4}5,6,5x/7x,,
{4}6,6,5x/6x,,
{4}3,3,3x/4x,,
{4}2,2,1,1,
{4}8,1/8,2b/7b,,
{4}3h[2:1],,4,4,
{4}5h[2:1],,4,4,
{4}3h[2:1],,4,5,
{4}6,6,5x/6x,,
{4}6h[2:1],,5,5,
{4}4h[2:1],,5,5,
{1}3hx[1:1]/6hx[1:1],,
{1}7^4[8:3],
{1}3^8[8:3],
{1}7-4[8:3],
{4}3x,3x,3x,,
{1}3-1[4:1],
{1}8-6[4:1],
{1}4-1[8:3]/5-8[8:3],
{1}2b/7b,
{4}2,1x/2x,2,1x/2x,
{4}3,3,2x/4x,,
{4}3,4,4-1[8:3]/5-8[8:3],,
{2},2x/7x,
{4}7,7x/8x,7,7x/8x,
{4}6,6,5x/7x,,
{4}1x/8x,1x/8x,2x/7x,,
{1}7-4[8:3]/8-3[8:3],
{1}1-6[8:3]/2-5[8:3],
{4}7,7,6,5,
{4}4,3,2x/5x,,
{1}1-6[8:3]/2-5[8:3],
{1}7-4[8:3]/8-3[8:3],
{4}2,2,1,1,
{4}8,1x/8x,2b/7b,,
{1}7^4[8:3],
{1}3^6[8:3],
{1}7-4[8:3],
{4}3x,3x,3x/4x,,
{1}2pp6[4:5],
{4},,,7,
{1}7qq4[4:5],
{4},,,3,
{1}3h[1:2],
{4},,,4,
{1}4h[1:2],
{4},,,5,
{1}5h[1:3],,
{1}6h[1:1],,
{1}4x-2[8:3]/5x-7[8:3],
{1}1-5[8:3]/8-4[8:3],
{1}2x/7x,
{4}3h[4:3],,,4x,
{4}2,1/2,3x/8x,,
{4}3h[4:1],4x,6h[4:1],5x,
{1}4-1[8:3]/5-8[8:3],
{4}2,1x/2x,7,7x/8x,
{4}6,5x/6x,4x/7x,,
{2}B6,B5/B7,
{2}B3,B2/B4,
{1}C1f,
E
EXPERT
(125.0){1},
{4}6^3[4:1],,2,2,
{4}3^6[4:1],,7,7,
{4}6^3[4:1],,2,2,
{4}1^4[4:1],,5,5,
{4}3^6[4:1],,7,7,
{4}6^3[4:1],,2,2,
{4}3^6[4:1],,7,7,
{4}8h[4:3],,,1b,
{8}8,7,6h[4:1],,5,,3/5,,
{8}1,2,3h[4:1],,4,,4/6,,
{8}8,7,6h[4:1],,5,,3/5,,
{8}2,,1,,8,8,4/7,,
{8}1,2,3h[4:1],,4,,4/6,,
{8}8,7,6h[4:1],,5,,3/5,,
{8}1,2,3h[4:1],,4,,4/6,,
{8}8,8,1,,3/6,,4/5,,
{4}6h[1:1],5,5,5,
{4}4h[1:1],5,5,5,
{4}6h[1:1],5,5,5,
{4}4h[2:1],5,5,4/5,
{4}3h[1:1],4,4,4,
{4}5h[1:1],4,4,4,
{1}3h[1:1],
{4}6-3[4:1],,,2,
{4}1>6[8:3],,,7,
{4}8<3[8:3],,,2,
{4}1>6[8:3],,,7,
{4}8-4[4:1],,,3/5,
{8}2,,1,1,8,,4/6,,
{8}7,,8,8,1,,3/5,,
{1}2h[1:1]/7h[2:1],
{4}C1f,,,1b/8b,
{8}6,6,5/7,,3,3,2/4,,
{8}1,1,8-4[8:1],,,,3h[4:1],,
{8}4,,6h[4:1],,5,5,4/7,,
{8}2/5,,1,8,2x/7x,,4/5,,
{8}3,3,2/4,,6,6,5/7,,
{8}8,8,1-5[8:1],,,,6h[4:1],,
{8}5,5/6,,,3/4,3/4,,,
{8}2,3,4,5,6^3[4:1],,,,
{8}1,1,8,1,8,7,6,5,
{4}3/4,1/2,7/8,5/6,
{4}5/6,7/8,1/2,3/5,
{4}6h[4:1],8h[4:1],1h[4:1],3,
{8}5,5,4,5,4^1[4:1],,,,
{4}7h[4:1],5h[4:1],4h[4:1],2q4[8:5],{1},
{4}E8,E7,E6,C1/E5,
{4}E4,E3,E2,E1/C1,
{4}E8,E7,E6,C1/E5,
{4}E4,E3,E2/E8,,
{2}8h[2:1],7h[2:1],
{4}6h[2:1],,5,4/5,
{2}4h[2:1],3h[2:1],
{4}2h[2:1],,1,1,
{4}8h[1:2],,5,5,
{4}5,5,5,,
{4}1h[1:2],,4,4,
{4}4,4,4,,
{1}8h[1:2],
{2}5,5,
{1}1h[4:7],
{1}5h[4:3],
{2}7-3[8:1],2-6[8:1],
{8}8h[4:3],,,,1,1,1,,
{8}2/7,2h[16:5]/7h[16:5],,,,,,,
{1}Chf[2:1],
{8}8,8,1-5[8:1],,,,7h[4:1],,
{8}8,,2h[4:1],,1,1,3/8,,
{4}2/5,1b-5[8:1]/8b-4[8:1],,3x/6x,
{8}7,7,6/8,,2,2,1/3,,
{8}1,1,8-4[8:1],,,,2h[4:1],,
{8}8,2/8,,,1/7,1/7,2/8,2/8<2[2:1],{1},
{1}C1f,
E
MASTER
(125)
{4}45,45,
3-5[8:1],6,5-3[8:1],6,6-4[8:1],3,4-6[8:1],3,
4-2[8:1],7-5[8:1],{8}4,4h[4:1],,5,
{4}5-7[8:1],2-4[8:1],{8}5,5h[4:1],,4,
{4}5-7[8:1],3,7-5[8:1],4,4-2[8:1],6,2-4[8:1],5,
5p4[2:1],3,{8}3,3,,,{1}45,
{8}56,4,{16}3h[16:3],,,4h[16:3],,,{8}3,25,,
34,5,{16}6h[16:3],,,5h[16:3],,,{8}6,47,,
56,4,{16}3h[16:3],,,4h[16:3],,,{8}3,4,5,
{16}6h[16:3],,,5h[16:3],,,{8}6,47,6,25,3,
46,5,{16}7h[16:3],,,5h[16:3],,,{8}6,47,,
35,4,{16}2h[16:3],,,4h[16:3],,,{8}3,25,,
46,5,{16}7h[16:3],,,5h[16:3],,,{8}7,5,4,
{16}2h[16:3],,,4h[16:3],,,3,,{4}2/5-8[8:1],4,
{8},2,2,6,6-4[8:1],4,3,2,,7,7,3,3-5[8:1],5,6,7,
,2,2,8-4[8:1],3,3,,,6,5,4,3^6[8:1],8,8h[4:1],,1,
,7,7,5,5-3[8:1],6,7,8,,2,2,4,4-6[8:1],3,2,1,
{4},6h[4:1],5h[4:1],4q5[8:3],,,{8}3,3,{16}4,5,4,,
{4}3>6[2:1],5,4,5,6q3[2:1],4,5,4,4v5[4:1]/5,6,7,18,
{16}2h[16:3],,,3h[16:3],,,{8}4-1[8:1],,8,8,,
6-4[8:1],6,2-8[8:1],2,7-3[8:1],7,,,12,3,45,6,
{16}7h[16:3]/8,,,6h[16:3],,,5,,1/2h[16:3],,,3h[16:3],,,
{8}4-1[8:1],,8,8,,{16}4x/5x,,,2b/7b,,,{8}B1/B5/E1/E5/Cf,,,34,45,56,
{16}7-4[8:1],8,,8,7,,3,,2-5[8:1],1,,1,2,,{8}6,7qq4[8:3],8,1,,,
{16}3,,3,4,2,,6,5,7,,4,5,{8}4,36,2-5[8:1]/7-4[8:1],18,
2b/7b,,E2/E8,E3/E7,E4/E6,E1/E5,E3/E7/Cf,,18,
{16}2-5[8:1],1,,1,2,,6,,7-4[8:1],8,,8,7,,{8}3,2pp5[8:3],1,8,,,
6,7-4[8:1]/8-3[8:1],1x/6x,7x/8x,,,3x/8x,1x/2x,78,16,
{16}E2,E6,E3,E7,E4,E8,E5,C,,E2,E8,E3,E7,E4,E6,E5,
B8,E3,B5,B1,E7,B4,B8,E3,B5,B1,E7,B4,E1,E5,C,,,
{8}B2/E2,B8/E8,B4/E4,B6/E6,B1/E2,B7/E8,B3/E4,B5/E6,
B1/E1,B7/E7,B3/E3,B5/E5,B1/B2,B7/B8,{16}B4,B5,,
E3,E8,B3,B7,B4,B6,E5,,E7,E2,B6,B2,B5,B3,E5,,
E3,E7,E2,E8,E4,E6,C,,,,{32}E1,E8,E7,E6,E5,E4,E3,E2,{8}E1,
{16}B4,B5,,B2/E3,,B6/E7,,,E4/E5/E6,,B1,B8,,B3/E3/B7/E7,,,
B2/E2/B5/E6,,,B3/E4/B7/E8,,,E1/E5,,{2}B2/B3/B6/B7/Cf,
{8}45,3,3,5,5-3[8:1],3,2,1,,6,6,4,4-6[8:1],6,7,8,
,2,2,7,7-4[8:1],4,3,2,,6,6,2,2-5[8:1],5,6,7,
{4}8h[2:1],1,2h[2:1],4,6h[2:1],5,4h[4:1],{8}5,4,4,5,
{4}6h[4:1],5,3h[4:1],{1}4q5[2:1],
{4}5h[1:2]/7,6,6,6,4,4,4,3,4h[1:2],5,5,5,3,3,3,5,
{2}6-4[4:1],8-6[4:1],2-8[4:1],4-2[4:1],6-4[4:1],2-5[4:1],{4}6,,,
{16},,4,4,5^8[16:3],,,8^3[16:3],,,3^6[16:3],,,6^1[16:3],,,
{8}2,3,4h[4:1],,5,27,,45,{16}3,5,4,6,
{8}5x/7x-3[8:1],2x/4x,{16},,,1b,{8},,3>6[2:1],6,
{4},{16},,,1h[16:3],{8},5,36,,
2-5[8:1]/6-1[8:1],15,{16}2b/6b,,,E4/E8/Cf,{4},
{16}45,,3,4,2,,6,5,7,,1,8,1,,
{8}26,3-8[8:1]/7-4[8:1],48,3b/7b,,26,{16}4,4,{8}5w1[8:1],37,,,
45,{16}2-5[8:1],1,,1,2,,5,,7-4[8:1],8,,8,7,,{8}4,2qq7[8:3],3,4,,,
6,7-4[8:1]/8-3[8:1],1x/6x,7x/8x,,,3x,1x-6[8:1]1/2x-5[8:1],38,1b/2b,,
{16}E4,E8,E3,E7,E2,E6,B1/E1,B5/E5,B3/E3,B7/E7,Ch[4:1],,,,
{1}8b,,,,
E
Re:MASTER
最終更新:2026年03月30日 22:21