アットウィキロゴ

絡めトリック利己ライザー

アーティスト じーざす(ワンダフル☆オポチュニティ!)feat.Kradness

BPM BASIC ADVANCED EXPERT MASTER Re:MASTER
150 4 7+ 10+ 12+ -

EXPERT MASTER Re:MASTER
譜面制作者 シチミヘルツ 小鳥遊さん -

BASIC


ADVANCED


EXPERT


MASTER

(150)
{16}45,,,45,,,3h[8:3]/6h[8:3],,
{2},
{8}45,3,45,6,{16}45,,,4,5,,3,,{8}45,6,45,3,{16}45,,,5,4,,6,,
{8}45,3,24,3,45,6,57,6,45,3,45,6,{16}4,5,,36,,,,,
{8}2-7[8:1],2,5,5,6-3[8:1],6,1,1h[8:3],,8,7,6,{4}45,27,
{12}3,5,3,6,4,6,3,4,3,6,5,6,4,4,4,5,5,5,3,3,3,6,6,6,
{4}1h[4:1],2h[4:1],3h[4:1],4h[4:1],5h[4:1],6h[4:1],7>6[4:3],{1}Chf[1:2],8<1[4:3],{4},1hx[2:1]/8hx[2:1],,,2b/7b,
4hx[16:3]/6hx[16:3],4h[16:3]/6h[16:3],{16}5h[8:1]/7h[8:1],,,4h[8:1]/6h[8:1],,,35,,
{4}3h[16:3]/5h[16:3],3h[16:3]/5h[16:3],{16}2h[8:1]/4h[8:1],,,3h[8:1]/5h[8:1],,,46,,
{4}4h[16:3]/6h[16:3],4h[16:3]/6h[16:3],{16}5h[8:1]/7h[8:1],,,4h[8:1]/6h[8:1],,,35,,
{4}3h[16:3]/5h[16:3],3h[16:3]/5h[16:3],{16}4,5,4,,{4}2b/8b,
5hx[16:3]/7hx[16:3],5h[16:3]/7h[16:3],{16}6h[8:1]/7h[8:1],,,4h[8:1]/5h[8:1],,,24,,
{4}2h[16:3]/4h[16:3],2h[16:3]/4h[16:3],{16}2h[8:1]/3h[8:1],,,4h[8:1]/5h[8:1],,,57,,
{4}5h[16:3]/7h[16:3],5h[16:3]/7h[16:3],{16}6h[8:1]/7h[8:1],,,4h[8:1]/5h[8:1],,,24,,
1x/2x,,,34,,,78,,,56,,,{4}B3f/B6f/Cf/E3f/E7f,
{8},7,7,1,2,3,4,56,,2,2,8,7,6,5,34,,5,6,7,6,5,4,34,,3,4,5,6/7h[4:1],,,,
{16}C,,,E7/E8,,,6,,{8}5,4,3h[4:1],,{16}C,,,E2/E3,,,3,,{8}4,5,6h[4:1],,
{16}C,,,E7/E8,,,6,,{8}5,4,3,2,{4}1-5[8:1],1/8-4[8:1],18,2b/7b,
{8}2/4-8[8:1],5,3-1[8:1]/4,2,38,5,26,3,48,7,3V14[4:1]*pp4[4:1]/6,2,3,,,,
5b-1[8:1]/7b,4,5/6-8[8:1],7,16,4,37,6,25,3,47,8,{16}1b/2b,,,4b/8b,,,3,4,
{8}3,2,1-5[8:1]/8,5^2[8:1],{4}7h[16:3],{16},,6,5,
{8}6,7,1/8-4[8:1],4^7[8:1],{8}2h[16:3],,,1,
{4}1x/8x,23,67,E3f/E7f/Cf,{8}18,2,18,7,{16}45,,6,5,,3,4,,
{4}2b/7b,{32}1x/8x,2,3,4,,,,,1x,2,3,4,,,,,1x,2,3,4,,,,,
{8}45,6,78,1,{16}2h[8:1]/4h[8:1],,,4h[8:1]/6h[8:1],,,34,,
{4}2b/5b,{32}1x/8x,7,6,5,,,,,8x,7,6,5,,,,,8x,7,6,5,,,,,
{8}45,3,24,1,{16}B7/B8/E7,,,B3/B4/E3,,,6,,
{8}7^4[8:1],8,1,2,3^8[8:1],4,5,6,7-2[8:1],7,3-6[8:1],3,1-5[8:1],1,4,3,
{16}2h[8:1],,1,2,,,38,,7h[8:1],,8,7,,,{8}16,45,{4}4h[4:1]/5,2^7[8:1],4>5[4:5],,,,,,{8},
E8,B8,B1,E2,B2,{4}B3,B6/B7,B1/B8,B2/B3,B4/B5/Ch[8:5],,,,{8},
4/5h[8:11],,,4,,4,4,,,4,,{16}4,5,4,,{8}4,4h[1:1],,5,,,5,,5,5,,{12}E8,E6,E3,E2,E4,E7,B6,B2,B8,B4/C,,,
{4}6h[2:1],5,5h[8:3],{8}6,6h[4:1],,5h[8:5],,6,6h[4:1],,{4},3h[2:1],4,4h[8:3],{8}3,3h[4:1],,4h[8:5],,3,3h[4:1],,{4}, 8h[4:1],7h[4:1],6h[4:1],5h[4:1],4h[4:1],3h[4:1],2<3[4:3],{1}Chf[1:2],1>8[4:3],{4},1hx[2:1]/8hx[2:1],,,2b/7b,
{8}1/4-8[8:1],5,3-1[8:1]/4,2,38,5,26,3,48,7,3V14[4:1]*pp4[4:1]/6,2,3,,,,
5b-1[8:1]/8,4,5/6-8[8:1],7,16,4,37,6,25,3,47,8,{16}1b/2b,,,4b/7b,,,3,4,
{8}3,2,1-6[8:1]/8,6>1[4:1],1/7h[16:3],,,{16}6,5,
{8}6,7,1/8-3[8:1],3<8[4:1],2h[16:3]/8,,,1,
{4}1x/8x,23,67,E3f/E7f/Cf,{8}18,2,18,7,{16}45,,6,5,,3,4,,
{4}2b/7b,{32}1x/8x,7,6,5h[16:3],,,,,8x,7,6,5h[16:3],,,,,8x,7,6,5h[16:3],,,,,
{8}45,3,12,8,{16}5h[16:3]/7h[16:3],,,3h[16:3]/5h[16:3],,,56,,
{4}5b/7b,{32}1x/8x,2,3,4h[16:3],,,,,1x,2,3,4h[16:3],,,,,1x,2,3,4h[16:3],,,,,
{8}5,6,57,8,{16}B1/B2/E1/E3,,,B5/B6/E5/E7,,,3,,
{8}2^5[8:1],1,8,7,6^1[8:1],5,4,3,2-7[8:1],2,6-3[8:1],6,8-4[8:1],8,5,6,
{16}7h[8:1],,8,7,,,16,,2h[8:1],,1,2,,,38,,{8}45,45,,4/5h[4:1],,7^2[8:1],,5<4[4:3],,,{16}E1,,,E5,,,Cf,,{4},
2hx[16:3]/4hx[16:3],2h[16:3]/4h[16:3],{16}1h[8:1]/3h[8:1],,,4h[8:1]/6h[8:1],,,57,,
{4}5h[16:3]/7h[16:3],5h[16:3]/7h[16:3],{16}6h[8:1]/8h[8:1],,,3h[8:1]/5h[8:1],,,24,,
{4}2hx[16:3]/4hx[16:3],2h[16:3]/4h[16:3],{16}1h[8:1]/3h[8:1],,,4h[8:1]/6h[8:1],,,57,,
{4}5h[16:3]/7h[16:3],5h[16:3]/7h[16:3],1w5[8:1],1b,
{4}5hx[16:3]/8hx[16:3],5h[16:3]/8h[16:3],{16}2h[8:1]/3h[8:1],,,5h[8:1]/7h[8:1],,,14,,
{4}1h[16:3]/4h[16:3],1h[16:3]/4h[16:3],{16}6h[8:1]/7h[8:1],,,2h[8:1]/4h[8:1],,,58,,
{4}5h[16:3]/8h[16:3],5h[16:3]/8h[16:3],{16}2h[8:1]/3h[8:1],,,5h[8:1]/7h[8:1],,,14,, 7x/8x,,,56,,,12,,,34,,,{1}B3f/B6f/E3f/E7f/Cf,,,,,,,
E

Re:MASTER


名前:
コメント:

タグ:

+ タグ編集
  • タグ:
最終更新:2026年04月05日 14:04