| アーティスト |
REDALiCE feat. Ayumi Nomiya |
BASIC
ADVANCED
EXPERT
MASTER
(183)
{4}3/7hx[2:1],3,3,{8}6,2hx[8:3]/6,,6,5,,45,36,2b/7b,,
{4}1-5[8:1]/8,7,{8}6,5,6,{4}4-8[4:1]/7,8-2[8:1],7-4[8:1],{8}7,8,,
{4}18,2x/7x,{8}2-5[8:1],1,2,8qq2[8:3],,1,2,3,4,,{16}4,5,4,,
{4}3/6-1[8:1],2,{8}2,1,2,{4}3/8-4[8:1],2,1,{8}6<5[8:5],6,{4}1x,,,,
45,{8}27,{8}1-4[8:1]/8-5[8:1],,{4}1b/8b,,
2^5[2:1]/7,,B3,B1,7h[4:1],C,B4/B5/E4/E6,18,
2/7^4[2:1],,C,2h[1:1],E3,E1,C,E5,
2^5[2:1]/7,,B3,B1,7h[4:1],C,B4/B5/E4/E6,1<3[2:1]/8,
{1}7h[4:3],{16}5,4,5,,3x/6x,,,4,{8}5,5,3x/6x,,
{4}2/7^4[2:1],,B6,B8,2h[4:3],E3,C,E7,
7h[4:3],E6,E4,C,{8}1,1,8,8,2,2,7,7,
3,3,2x/5x,{16},4,5,,5,,3x/6x,,,5,6,,6,,4x/7x,,,5,4,,4,,3x/6x,,,6,
4,5,4,5,3,6,3,6,2,7,2,7,2,,{8}1x/8x,,B7/B8/E8,B2/B3/E3,B5/B6/E6,{4}Cf,,
7-4[8:1]/8,1,1/2-5[8:1],8,7-4[8:1]/8,1,7-4[8:1]/8,1,
3^6[4:1],6^1[4:1],1-5[4:1],5-1[4:1],8,8,{8}1x/8x,1x/8x,2x/7x,,
{4}3-8[8:1]/4,5,5/6-1[8:1],4,3-8[8:1]/4,5,3-8[8:1]/4,5,
6q2[8:1],4,3>7[4:1],7<3[4:1],,,18,2x/7x,
{16}1b/2b,,,4b/7b,,,3bV52[4:1]/8bV61[4:1],,{2},
{16}7x/8x,,,2x/5x,,,1xV37[4:1]/6xV48[4:1],,{2},
{16}1x/2x,,,4x/5x,,,3xV52[4:1]/7xV16[4:1],,{2},
{8}1,,24,{4}3,4/8<2[8:3],Cf,{8},{4}8x,2b/6b,,
Cf,E1/E5,B2/B3/B6/B7/E3/E7/Cf,{8}1,8-4[8:1],,8,1,,2x/6x,,17,2,
{4}3/4b-8[8:1],2b-6[8:1],1b^6[8:1],{8}3,3qq8[2:1],,7,7-4[8:1],,7b,,2x/6x,,
{16}17,,6,5,6,,4,,34,,2,1,2,,8,,78,,6,5,6,,4,,34,,{8}2,1b/2b-5[4:1],,
{4}5-8[4:1],8-3[4:1],3,{8}6<4[8:3],6,{4},,8,2b/6b,
Cf,E1/E5,B2/B3/B6/B7/E3/E7/Cf,{8}8,1-5[8:1],,1,8,,3x/7x,,28,7,
{4}5-1[8:1]/6,7-3[8:1],8^3[8:1],{8}6,6pp1[2:1],,2,2-5[8:1],,{4}2b,3x/7x,
{8}5/6h[4:1],,8,17,,12,38,,3h[4:1]/4,,1,{4}28,24,
{6}18,57,35,28,1/6h[12:5],,{16}1x,2x,3x,4x,5x,6x,7x,8x,1x,2x,{2}3hx[2:1]/7hx[2:1],,,
{4}6h[1:1],5,4,3,2h[1:1],3,4,5,{2}6^3[2:1],3^8[2:1],8p4[2:1]*^5[2:1],,
{4}2h[1:1],3,4,5,6h[4:3],5,4,3<2[1:1],7h[1:1],,,,,6,5,4,
3h[1:1],2,1,8,7h[1:1],8,1,2,{2}3^6[2:1],6-2[2:1],2^5[2:1]*^7[2:1],,
{4}5h[4:1]/6h[2:1],,3h[2:1],4,6,56,4,45,
{8}3,3,6,6,{16}4,5,4,5,4,5,4,,{8},46,,24,{4}18,2-4[8:1]/7-5[8:1],,C,E2/E6,E4/E8,
{8}2h[8:3],,,4,34,,7,56,,{16}4,5,{8}4,4,4,4,{4}2b/7b,
6/8b^3[8:1],7b-3[8:1]/8,5b-2[8:1]/7,{8}7,7qq4[2:1],,3,{4}3-8[8:1],3b,2x/6x,
{16}12,,2,4,3,5,4,,56,,7,1,8,1,8,,12,,2,4,3,5,4,,{8}56,7,1b-4[4:1]/8b,,
{4}4-7[4:1],7-2[4:1],2,{8}5<3[8:3],5,{4},,1,3b/7b,
Cf,E1/E5,B2/B3/B6/B7/E3/E7/Cf,{8}1,8-4[8:1],,8,1,,2x/6x,,17,2,
{4}1^6[8:1]/3,1/2-6[8:1],2/4-7[8:1],{8}2,2pp5[2:1],,6,{4}6-1[8:1],6b,3x/7x,
{8}3h[4:1]/4,,1,28,,45,36,,7h[4:1]/8,,5,{4}46,18,
{6}17,56,35,28,1/7h[12:5],,{16}1x,2x,3x,4x,5x,6x,7x,8x,1x,2x,{8}3hx[8:3]/7b,,,
{16}7x,6x,5x,4x,3x,2x,1x,8x,7x,6x,{4}1b/5hx[4:3],,1x,1x,{32}1x,2x,3x,4x,5x,6x,7x,8x,{4}1b/5b,
1/8-4[8:1],28,{8}3,4,3,{4}2/5-1[4:1],1-7[8:1],2-5[8:1],{8}2,1,,
{4}18,2x/7x,{8}7-4[8:1],8,7,1pp7[8:3],,8,7,6,5,,{16}5,4,5,,
{4}3-8[8:1]/6,7,{8}7,8,7,{4}1-5[8:1]/6,7,8,{8}3>4[8:5],3,{1}8x,
{8}37,,26,{4}1^4[8:1]/5^8[8:1],1b/5b,{8},15,,48,{4}1-5[8:1]/7-3[8:1],{16}1b/7b,Cf,
{1},,,,E
Re:MASTER
- pp形 qq形 misuse & slide ending timing 修正 -- LinkMiguel (2021-12-10 14:49:32)
- thank you very much!! -- 嵐雅 (2021-12-10 23:50:55)
- Fixed a measure on the slide. -- Ruxeye (2022-01-16 16:58:17)
最終更新:2026年04月12日 13:46