アットウィキロゴ

アンドロイドガール

アーティスト DECO*27

BPM BASIC ADVANCED EXPERT MASTER Re:MASTER
192 4 7+ 10 12+ -

EXPERT MASTER Re:MASTER
譜面制作者 シチミヘルツ サファ太 -

BASIC


ADVANCED


EXPERT


MASTER

(192)
{8}45,,36,3/6-4[8:1],,3hx[4:7],,,5,,5,,4,,5,5,,4,,4,,
4x/5x,4x/5x,4x/5x,,3,35,,6,46,,3,3h[4:1]/5h[4:1],,,3-5[8:1]/5,,
6x,,6h[4:1],,4,4,5,6,3,3,4,5,46,,35,,
1x/8x,,7,1x/6x,,2,3x/8x,,46,3,28,7,1-5[8:1]/6,,1b,,
6,4,7,1,2h[4:1],,8,8-4[8:1],,3-6[8:1],,7,,8,28,,
3,5,2,8,7h[4:1],,3,25,,18,7,4/6-3[8:1],,1x,1x,,
3,5,4,8,7h[4:1],,1,1-5[8:1],,6-3[8:1],,2,,1,17,,
26,5,4,6,37,4,5,3h[4:1]/6h[4:1],,,36,,4x/5x,,,,
6h[4:1],,5,5,7h[4:1],,5,,5/6h[4:1],,5,5,7,,46,,
3h[4:1],,4,4,{4}2h[1:1],3,E3,E5,E7,E1,
{8}3h[4:1],,4,4,2h[4:1],,4,,3h[4:1]/4,,4,4,
{4}2,1/8h[4:5],E8,E7,E6,E5,Ch[2:1],,,,
{8}7h[4:1],,5,5,6h[4:1],,5,,3h[4:1],,4,4,2h[4:1],,4,,
2h[4:1],,4,4,3h[4:1],,{4}4,45,45,B2/B3,B7/E8,
{8}4/6h[4:1],,4,4,4/6h[4:1],,4,,3h[4:1]/5,,5,5,
{4}35,2h[1:1],E3,E4,E5,E6,E3/E7/Ch[2:1],,,,
{2}2x^5[2:1],B5/B6,8x^5[2:1],B1/B2,3x^8[2:1],B5/B6,{4}7x,7,6,45,
34,25,{8}3,4,25,,56,,47,,6,5,{4}4/7<2[2:1],C,,,{8}18,27,3b/6b,,,2-5[8:1],4,2,8w4[8:1],,
8b,,,17,26,3-8[8:1]/5,,3/7-4[8:1],,1>7[8:3]/7,,1x/5x,,8,8,2,
25,3,46,7,78,6,46,5-1[8:1],,2,3,8,7-3[8:1],4,7,,1x/5x,,,
{4}2hx[4:1],4x^7[8:1],1^4[8:1],8-4[8:1],8x,2x/6x,
{8}47,6,5,25,1,18,2<4[8:3],2,4x,,,,7-4[8:1],5,7,1w5[8:1],,
1b,,,28,37,4/6-1[8:1],,2-5[8:1]/6,,2/8<2[8:3],,4x/8x,,1,1,7,
47,6,35,2,12,3,35,4-8[8:1],,7,6,1,2-6[8:1],5,2,,4x/8x,,,
{4}7hx[4:1],5x^2[8:1],8^5[8:1],1w5[8:1],1x,3b/8b,
{8},2^5[8:1]/6,,2,8-4[8:1],,8,2^5[8:1],,2,1-5[8:1],,1,3x,,4x/6x,,
57,6,1,24,3,8,57,6,45,3,2,1,8-4[8:1],,4x/8x,,
{2}3x/5hx[1:2],6x,,6x,2x,
{16}27,,1,8,2,7,2,7,2,3,4,5,8,7,6,5,{2}Cf,
{8}8b,8^5[8:1],,{16}3,2,{4}1,78,{16}7h[16:3],,,6h[16:3],,,5,,{4}45,36,
{8}25,2/5^8[8:1],,{16}2,3,{4}4,37,{16}4x/5h[2:1],,,4x,,,4x,,4,3,2,1,7,6,5,4,
{8}1x,1^4[8:1],,{16}5,6,{4}7,38,{16}7h[16:3],,,5h[16:3],,,4,,{4}34,12,
{8}57,5^2[8:1]/7,,{16}8,7,{4}6,18,{16}2/7h[16:3],,,6h[16:3],,,5,,2h16[16:3],,,3h[16:3],,,4,,
{0.5}Ch[1:2],,,{1}4h[1:2],5^8[4:3],{8},,,,45,45,,3hx[4:1]/6hx[4:1],,,36,,4,,5,,
{4}7^4[2:1],4,3,{8}1,1,{4}2^5[2:1],5,6,{8}8,8,
{4}7h[4:1],5h[4:1],6,{8}4,4,{4}3h[4:1]/5,4h[4:1],2,{8}18,18,2x/7x,
{16}3,4,3,,6x,5,6,,3x,4,3,,7,5,6,,2,4,3,,7x,5,{8}6,1x/8x,2x/7x,,
4x/5x,4hx[8:7]/5hx[8:15],,,,,,,{1},Ch[4:3],{8}18,2b/7b,,5,4,36,2-5[8:1]/7-4[8:1],,
27,,1b/8b,,56,4/7-4[8:1],,3-8[8:1]/7,,3/5<3[8:3],,1x/5x,,4,4,6,
16,7,28,3,34,5,26,1-5[8:1],,6,7,4,3-7[8:1],5,3,,1x/5x,,,
{4}3hx[4:1],1x^6[8:1],4^1[8:1],5-1[8:1],5x,3x/8x,
{8}47,8,1,24,3,45,6>8[8:3],6,8b,,,,7-3[8:1],1,7,5w1[8:1],,
5b,,,46,37,2-5[8:1]/8,,2/6-2[8:1],,4>6[8:3]/6,,4x/8x,,5,5,3,
38,2,17,6,46,3,28,1h[4:1],,5,7-4[8:1],3-8[8:1],7,3,5,5,3b/7b,,,
{4}6hx[4:1],8x^3[8:1],5^8[8:1],4w8[8:1],4x,2b/6b,
{8},3^8[8:1]/7,,3,7-4[8:1],,7,3^8[8:1],,3,7-3[8:1],,7,1x,,2x/5x,,
57,6,1,24,3,8,47,6,{4}3/5-1[8:1],2x^5[8:1]/5x,2x/8x,1b/7b,
3-8[8:1]/5,{8}3,7x-3[8:1],,7,2x^7[8:1],,2,6x^3[8:1],,6,1x,,4x/6x,,
2x/7x,{16}3,4,3,,2x/7x,,6,5,6,,1x-5[8:1],8,1,8,1x,,7x,,
{4}7x^2[8:1]*^4[8:1],7b,Ch[4:7],,,,,,,,
{8}1b-4[8:1]/8b-5[8:1],1b/8b,{1},,,,,,
E

Re:MASTER


名前:
コメント:

タグ:

+ タグ編集
  • タグ:
最終更新:2026年04月08日 20:38