アットウィキロゴ

共鳴

アーティスト SADA 2Futureanthem feat. ellie

BPM BASIC ADVANCED EXPERT MASTER Re:MASTER
174 4 7 10 13 -

EXPERT MASTER Re:MASTER
譜面制作者 はっぴー Safata.Hz -

BASIC


ADVANCED


EXPERT

(174)
{1}1h[4:27],,,,{4}5,5,5,5,5,5,5,5,5,5,5,5p4[2:1],,,,,
5,5,45,4-1[4:1]/5,5,5,15,1-4[4:1]/5,5,5,5,4qq3[2:1]/5,5,5,5,5,
4,4,45,4/5-8[4:1],4,4,48,4/8-5[4:1],4,4,4,4/5pp6[2:1],4,4,4,4,
5,5,{8}5h[4:1],4,4,,{4}3,3,{8}3h[4:1],4,4,,
{4}6,6,{8}6h[4:1],5,5,,{4}4,4,{8}4h[4:1],5,5,,
{4}7,7,{8}7h[4:1],5,5,,{4}2,2,{8}2h[4:1],4,4,,
{4}35,46,47,25,{8}3,3,6,6,{16}4,5,4,5,3b,,,,
{1}5^8[8:3],4^1[8:3],5^8[8:3],{2}B4/B5,B1/B8,
{1}4^1[8:3],5^8[8:3],{2}3h[2:1],1h[2:1],8h[2:1],{4}6,45,
{8}3/7h[8:5],,5,5,,8,8,,56,,47,3,34,,35,,
2h[8:5]/6,,4,4,,1,1,,34,,25,6,{4}56,4p2[2:1],
5h[4:3],,,4^1[4:1],,{8},7,{4}7h[4:1],5h[4:1],4h[4:1],{8}1,1,,8<1[2:1],,,{4},,,45,
{8}2h[8:5]/6,,4,4,,1,1,,34,,25,6,56,,46,,
3/7h[8:5],,5,5,,8,,8^3[4:1],{8},,,3,3,,46,,
7h[4:1],,5,5,,2,2h[4:1],,4,4,,7,7h[4:1],,5^2[4:1],,,,,8,8,,,27,{1}2V48[2:1]/7V51[2:1],
{8}1h[4:1]/8h[4:1],,,4h[4:1]/6h[4:1],,,{4}B3/B4/B7/B8/Ch[2:1],,,,,
{2}8x^5[4:1],1x^4[4:1],{8}7,7,{4}7h[4:1],5,36,
{8}1h[4:1]/8h[4:1],,,3h[4:1]/5h[4:1],,,{4}B1/B2/B5/B6/Ch[2:1],,,,18,
{2}1^4[4:1]/8,8^5[4:1],{8}1,1,8,8,,36,36,,
{8}7h[4:1],,5,5,8,8,1,1,4h[4:1],,3,34,2-6[4:1]/5,,,,
{4}7h[4:1],5h[4:1],4h[4:1],{8}2,2,8,8,5,5,{4}6,3b/7b,
{8}2h[4:1],,4,4,1,1,8,8,5h[4:1],,6,56,4/7-3[4:1],,,,
{4}2h[4:1],4h[4:1],5h[4:1],7h[4:1],{8}1,1,5,5,3,3,6,6,{1}Ch[2:3],,
{4}1h[4:3],5,5,5,3h[4:3]/5,5,5,5,2h[4:3]/5,5,5,5,4h[4:1]/5,5,25,3,
8h[4:3],4,4,4,4/6h[4:3],4,4,4,4/7h[4:3],4,4,4,{8}3,3,4,2,7,7,4x/5x,,
3/7h[8:5],,4,4,,1,1,,56,,47,3,34,,35,,
2h[8:5]/6,,4,4,,1^6[4:1],,,,,,6,6,,35,, 2h[4:1],,4,4,,7,7h[4:1],,5,5,,2,2h[4:1],,4^7[4:1],,,,,1,1,,,27,{1}2V41[4:1]/7V58[2:1],
{8}1h[4:1]/8h[4:1],,,3h[4:1]/5h[4:1],,,{4}B1/B2/B5/B6/Ch[2:1],,,,,
{2}1x^4[4:1],8x^5[4:1],{8}2,2,{4}2h[4:1],5,36,
{8}1h[4:1]/8h[4:1],,,4h[4:1]/6h[4:1],,,{4}B3/B4/B7/B8/Ch[2:1],,,,18,
{2}1/8^5[4:1],1^4[4:1],{8}8,8,1,1,,36,3/6h[4:1],,{1}Cf,{4}1>6[2:1],,,8b,
{8}5-2[4:1]/7h[2:1],,,,8,8,{4}1p8[2:1],,,,C,
{8}1,,2h[4:1]/4-7[4:1],,,,1,1,8,8,{4}5p3[4:1],,,
{8}8,8,18,18,2,2,26,26,5,5,35,35,{16}4,5,4,5,3,6,4b,,
{1},,,,,,,,,,,,
E

MASTER

(174)
{1}4/5h[4:13],,4h[2:7],,Ch[1:2],,2h[1:1],8^3[2:1]*^5[2:1],
{4}4h[1:1],,6,6,B7/E8,,3/5h[2:1],3,B2/E2,,45,3/6^3[2:1],2,2,2,24,
3/5h[2:1],,4,6h[4:3],4h[2:1],,,46,3h[1:1]/5,4,4,2<5[2:1],,,,46,
{8}3,,2h[8:3]/4,,,4,34,,6,,5/7h[8:3],,,5,56,,
3,,2h[8:3]/4,,,4,24,,6,,5/7h[8:3],,,5,57,,
1>6[8:3],,6,,,7,17,,8<3[8:3],,3,,,2,28,,
1^4[8:1],1,7,7,8^5[8:1],8,2,2,1,1,8,8,{24}1x,2x,3x,8x,7x,6x,{4}1b/5b,
{1}4/6h[1:3],{24}E8,E7,E6,,,,{4},,,{24}E2,E3,E4,,,,{4},,,
{24}E8,E7,E6,,,,{4},3h[1:3]/8,,
{24}E2,E3,E4,,,,{4},,,{24}E8,E7,E6,,,,{4},,,
{24}E2,E3,E4,,,,,,,,,,E1,C,E5,,,,,,,,,,{8}17,,56,47,,18,2b/7b,,
3/4-7[8:1],,2,1-5[8:1],,5,{4}6<2[4:1],2<6[4:1],3,4,15,
{8}3/4-7[8:1],,2,1-5[8:1],,5,{4}6<4[4:1],4x,{8},1,17,,27,,
4/8-4[8:1],,2,3-7[8:1],,6,5^8[8:1],,1,2b,,12,3,46,7,68,
1/5V74[4:1],,4,4V61[4:1],,2-6[8:1],,2b,,,3x/7x,,24,3,48,,
7/8-3[8:1],,6,5-1[8:1],,1,{4}2>6[4:1],6>2[4:1],7,8,17,
{8}5-1[8:1]/6,,8,8-4[8:1],,4>5[4:1],,Cf,,,1x,,78,16,2x/5x,,
1-5[8:1]/8,,5,6-2[8:1],,3,4^1[8:1],,8,7b,,78,6,45,3,12,
3h[4:1]/8,,4,5,16,,{16}6,5,6,,{8}4x/7x,,12,3x/8x,,45,2b/7b,,
3^8[8:1],,5,6^1[8:1],,5pp8[2:1],{4}4qq1[8:3],,,,2x/7x,
{8}5h[4:1]/7h[4:1],,,2h[4:1]/4h[4:1],,,4h[4:1]/7p4[2:1],,{2},Cf,
{8}6^1[8:1],,4,3^8[8:1],,4qq1[2:1],{4}5pp8[8:3],,,,2x/7x,
{8}34,5,16,27,3h[4:1]/8,,7,26,15,{4}4<8[4:1]/8>4[4:1],4V62[4:1]/8V26[4:1],,{8},
4b/8b,,35,{16}2-5[8:1],4,2,4,2,,{8}7,7,1^6[8:1],1,5-1[8:1],5,{2}1^4[8:1]*^6[8:1],
{8}3x/7x,,46,{16}7-4[8:1],5,7,5,7,,{8}1-5[8:1],1,6-1[8:1],6,4^1[8:1],4,{4}5h[4:1],1b,
{8}27,37,47,{16}6,5,6,,47,,3,4,3,,25,,2,1,2,,{8}37,4w8[8:1]/6,,,,
{8}2x/6x,1,{16}6,5,7,,3,4,2,,8<2[2:1],1,8,1,
{8}8,2,2,1,{4}1v4[8:1]*v6[8:1],1,{1}3b/7b,{2},4x/5x,
{1}6^3[4:3],{4}2h[1:1],,1,1,{1}1^6[4:3],{4}4h[1:1],,E5,C,
8^5[4:3],,E1,C,4^1[4:3],,E5,C,{8}8h[8:5],,,1h[4:1],,,18,,
{16}3b,6,5,6,5,6,2b,8,1,8,1,8,{4}2b/7b,
{8}1s5[8:1],,6,7-3[8:1],,4,{4}2V86[4:1],6V42[4:1],2,8,26,
{8}8z4[8:1],,3,2z6[8:1],,6<4[4:1],,Cf,,,8x,,12,38,4x/7x,,
1/7-4[8:1],,4,3-7[8:1],,4,5^8[8:1],,1,2b,,12,3,45,6,17,
2h[4:1]/8,,1,38,47,,{16}3,4,3,,{8}3x/5x,,12,3x/8x,,45,2b/7b,,
6-1[8:1],,4,3-8[8:1],,4z8[2:1],5s1[8:3],,{4},,,2x/7x,
{8}2h[4:1]/4,,6,5/7h[4:1],,3,2q5[2:1]/5h[4:1],,{2},Cf,
{8}3-8[8:1],,5,6-1[8:1],,5s1[2:1],4z8[8:3],,{4},,,2x/7x,
{8}34,5,16,27,3h[4:1]/8,,7,26,15,{4}4V68[4:1]/8V24[4:1],4V62[4:1]/8V26[4:1],,{8},
{1}4hx[1:1]/8b,{16}8,2,8,2,7,3,6,4,5,3,5,3,{4}8w4[8:1],
{8}8b,,26,{16}7-4[8:1],5,7,5,7,,1x,,1x,,1,2,8,7,2,3,7,6,3,4,6,5,{4}1b,
{8}36,26,16,{16}7,8,7,8,6,,2,1,2,1,3,,{8}35,46,7,{4}1w5[8:1]/8,1b,
{8}3x/7x,4,{16}7,8,6,,2,1,3,,5,4,5,4,
{8}B6/E7,B2/E3,E1/B8,B4/E5,{16}B7,B1,B5,B3,B8,B2,B6,B4/C,
{1},,,,,,,,,,,,
E

Re:MASTER


名前:
コメント:

タグ:

+ タグ編集
  • タグ:
最終更新:2026年04月07日 21:22