アットウィキロゴ

ARAIS

アーティスト 千本松 仁

BPM BASIC ADVANCED EXPERT MASTER Re:MASTER
180 6 8+ 12 14 -

EXPERT MASTER Re:MASTER
譜面制作者 小鳥遊さん Sukiyaki vs Happy -

BASIC


ADVANCED


EXPERT


MASTER

(180)
{4}B1/B4/B5/B8/Cf,,,{16},,4,5,{8}4,,,36,,,{4}25,
1b,,,36,{8}46,3,35,6,46,{16}3,4,3,,1,,
{4}2x/8x,{16}3,4,3,,7,,3,4,3,,{8}7,4,45,6,45,3,{16}6,5,6,5,7,1,
8x,,3,4,3,4,2,,6,5,6,5,7,4,6,5,{1}8h[8:7],{8}46,7,35,2,46,{16}1,8,{8}1,2x/7x,
,B6/E6,4,5,B3/E3,5,4,B7/E7,4,5,B2/E2,5,6,5-8[8:1]/6,,1,
,B3/E4,5,4,B6/E7,4,5,B2/E3,5,4,B7/E8,4,5,1b,,36,
,B2/E2,8,1,B7/E7,1,8,B3/E3,8,1,B6/E6,1,2,1-4[8:1]/2,,5,
,B7/E8,1,8,B2/E3,8,1,B6/E7,1,8,B3/E4,8,1,2-5[8:1]/7-4[8:1],,
2x/7x,,{16}3,4,{8}3,25,6,{4}46,3x/7x,{16}6,5,{8}6,47,3,26,,,
2x-6[8:1]/7x,,8,8<3[8:3],,2,2,,{4}1,1,24,46,
{8}5-1[8:1]/7,,8,8-6[8:1],,1,1>6[2:1],,7,7,,8,8h[4:1],,,{16}5,4,
{8}3h[4:1],5,6,7h[4:1],5,3,2h[4:1],4,
5-8[8:1],,1,1-5[8:1],,6,6-2[8:1],,3,3-7[8:1],,5<4[8:5],,1,1q5[4:1],,,,,,
2x/7x-3[8:1],,1,1>6[8:3],,7,{4}7,8,8,57,35,
{8}2/4-8[8:1],,1,1-3[8:1],,8,8<3[2:1],,2,2,,1,1,,37,,
{16}1x/8x,7,6,5,2x,3,4,5,1x,8,7,6,1x,2,3,4,7x,6,5,4,(120){24}1b,8,1,8,1,8,
(180){24}1x,2,3,4,5,6,1x,2,3,4,5,6,1x,2,3,4,5,6,1x,2,3,4,5,6,{4}2<5[2:1]/7>4[2:1],2b/7b,,,
{8}1,4,3,8,5,6,1,{16}5,4,{8}7,2,4,1,78,6,35,2,18,7,{16}4,5,
{8}2,8,5,7,1,4,2,{16}3x/5x,,4,5,4,6,4,7,4,8,4,,
6,,1,8,3,,6,5,8,,1,,4,,2,1,4,,6,,5,,7,,3,4,1,,4,,2,,7,8,5,,
{12}2x,2,2,4x,4,4,5x,5,5,7x,7,7,5x,5,5,4x,4,4,2x,2,2,{24}8b-3[8:1]*-5[8:1],1,8,1,,,
{8}8x,,1,28,37,{16}6,5,,2,{8}1,4,35,{16}7,8,6,,15,,3,4,,7,{8}8,
4,35,1^4[8:1],8,7,6^1[8:1],5,4,3^6[8:1],2,1,1,18,36,45,27,
{16}8^5[16:3],,,5v8[16:3],,,{8}2,2-6[8:1],1,{4}2x/5x,8-3[8:1]*-5[8:1],8x,{8}24,1,57,8,
8hx[8:7],5,5,1,4,1,5,1,1hx[2:1],4,4,8,5,46,{16}3,4,3,5,
4x,5,4,5,4,5,4,5,2x,5,4,7x,4,5,4,5,2x,4,3,4,3,4,3,4,2x,4,3,4,3,4,3,4,
2x,5,4,5,4,5,4,5,3x,6,5,6,5,6,5,6,4x,7,6,7,6,7,6,7,6,7,6,7,4x,5,4,5,
1^4[16:3],,,4v1[16:3],,,{8}7,7-3[8:1],8,{4}4x/7x,1-4[8:1]*-6[8:1],1x,3x-8[8:1]/5x-8[8:1],3x/5x,
{16}1x/8x,,,5x/7x,,,4x/5x,,1x/8x,,,2x/4x,,,4x/5x,,{8},1b/8b,1b/8b,7,56,4,35,2,
{1}1/8<1[4:11],,,,8h[4:11],,{4},3,5,4V63[8:5],,,,,
3,3,34,35,3/6h[4:1],3,3/8h[4:1],3,
36,6,{8}6,5,{4}6,3h[4:1]/6,6,{16}3,4,3,4,E2,B1,B8,,
6,5,6,4,E8,B8,B1,,3,4,3,5,E2,B1,B8,,6,4,5,3,E8,B8,B1,,3,5,4,6,4x,,,,
1x/E6,2,3,4,1x,2,3,4,1x/B6,2,3,4,1x,2,3,4,
1x/B7,2,3,4,1x,2,3,4,1x/E8,2,3,4,1x,2,3,4,{2}1x/Cf,{8}3b/7b,,2/6z2[4:1],26,
,1x,1x,1x,7,28,{16}3,4,3,4,2,,6,5,,2,1,,3,4,,7,{8}8,5,
36,3,4,3-8[8:1]/4,2,4,,5,36,6,5,5/6-1[8:1],7,5,,24,
{16}1,5,5,2,6,6,3,7,7,4,8,8,5,7,7,
4,6,2,5,3,7,5,6,2,4,3,8z4[4:1],5,6,3,{8}8x,
,2x,2x,2x,3h[4:1],4,7,35,6h[4:1],5,2,46,3h[4:1],4,5,
{16}7b,3,3,6,2,2,5b,1,1,4,3,3,7x,5,6,4,5,3,4,2,
{24}8b,7,6,1x,2,3,7x,6,5,2x,3,4,{32}8x,7,6,5,4,3,2,1,
{16}4x/8x,,2b,2,4,4,6,6,8,8,2,5,4,7,4,5,1,6,3,8,1<3[32:9]*p2[32:9],5,3,7,1x,{2},
{16},{8}8,17,26,35,4,12,1/2^5[8:1],3,1^6[8:1],8,12,3,4,4,
5,46,37,28,1,34,3/4^7[8:1],5,3^8[8:1]/4,2,34,5,6,5,
4,35,{16}6,6,{8}5,36,7,4/8-6[8:1],4,3x/8x-5[8:1],3,2x/8x-4[8:1],2,1x/8x,1,
8,17,{16}2,2,{8}1,26,3,4-2[8:1]/8,8,4x-1[8:1]/7x,7,4x-8[8:1]/6x,6,4x/5x,5,
1x/7x,{16}3,4,3,,17,,3,4,{8}3,17,
2b/6b,,{16}6,5,6,,28,,6,5,{8}6,28,
3b/7b,,{16}1,6,5,8,3,4,1,6,4,7,1-5[8:1],5,3,6,
{4}1b>7[1:2],{1}1b,,,,,,,,,,,,,,
E

Re:MASTER


  • MASTER譜面のノーツの配置ミス、SLIDEの速度の修正を行いました。 -- けもがみ (2026-03-13 06:55:27)
名前:
コメント:

タグ:

+ タグ編集
  • タグ:
最終更新:2026年05月24日 16:06