アットウィキロゴ

HERA

アーティスト ルゼ

BPM EASY BASIC ADVANCED EXPERT MASTER Re:MASTER
185 4 6 9+ 12+ 14 -

EXPERT MASTER Re:MASTER
譜面制作者 ロシェ@ペンギン Revo@LC -

EASY


BASIC


ADVANCED


EXPERT


MASTER

(185)
{2}5,{8}5,{16},1,{8}8,27,

{8}3,{16}3,4,{4}2,{8}2,{16}2,4,{8}3,{8}24,
{8}6,{16}6,5,{4}7,{8}7,{16}7,5,{8}6,57,
{8}3,{16}3,4,{4}2,{8}2,{16}2,4,{8}3,24,
{8}6,{16},57,{8}57,{16},24,{8}24,8,1,8,
{8}3,{16}3,4,{8}2,{16}2,4,{8}3,{16}3,4,{8}2,24,
{8}6,{16}6,5,{8}7,{16}7,5,{8}6,{16}6,5,{8}7,57,
{8}1h[16:1],8h[16:1],2,{16}2,4,{8}3,{16}3,4,{8}2,24,
{4}8b-6[8:1]*-5[8:1],8b-3[8:1]*-2[8:1],8b-4[8:1],8b,

{4}5-2[8:1]/4-2[8:1],45,5-7[8:1]/4-7[8:1],45,
{4}5-2[8:1]/4-2[8:1],4/5-1[8:1],4-8[8:1]/5,45,
{4}5-7[8:1]/4-7[8:1],45,5-2[8:1]/4-2[8:1],45,
{8}45,27,36,18,2^7[8:1]/7,{16}4,5,{4}2,
{4}5-7[8:1]/4-7[8:1],45,5-2[8:1]/4-2[8:1],45,
{4}5-7[8:1]/4-7[8:1],4-8[8:1]/5,4/5-1[8:1],45,
{4}5-7[8:1]/4-7[8:1],45,5-2[8:1]/4-2[8:1],45,
{4}3^1[8:1]/8^6[8:1],38,{8}37,12,18,78,

{8}6,6h[4:1],7,7h[4:1],2,2h[4:1],3,3h[8:1],
{8}4v2[8:1],2v8[8:1],{4},{8}5v7[8:1],7v1[8:1],{4},
{8}6,6h[4:1],7,7h[4:1],2,2h[4:1],3,3h[8:1],
{8}1v3[8:1],3v5[8:1],{4},{8}8v6[8:1],6v4[8:1],{4},
{8}2,2h[4:1],3,3h[4:1],6,6h[4:1],7,7h[8:1],
{8}5v7[8:1],7v1[8:1],{4},{8}4v2[8:1],2v8[8:1],{4},
{4}5b-8[8:1]*-7[8:1],5b-3[8:1]*-2[8:1],5b,{12}1b/8b,18,18,
{4}2h[6:1]/7h[6:1],3h[6:1]/6h[6:1],4-1[8:1]/5-8[8:1],4b/5b,

{1}6-2[8:13],
{1},
{1}7-3[8:13],
{1},
{1}2-6[8:13],
{1},
{1}3-7[8:13],
{4}2^4[8:1],2,2^8[8:1],2b,

{8}6-2[8:13],4,,3,,4,,3,
{8}1,1,1,{16}1,1,{2},
{8}7-3[8:13],1,,8,,1,,8,
{4}2h[4:1],{8},1,1,8,{4}8,
{8}2-6[8:13],8,,1,,8,,7,
{8}7,7,7,{16}7q4[8:1],7,{2},
{8}3-7[8:13],5,,6,,5,,6,
{4}8h[4:1],{8},1,1,2,{4}2b,

{16},,1b/2b,,,78,,,12,,,78,,,12,,
{16},78,,,12,,,78,,,12,,,78,,7b/8b,
{16},,56,,,78,,,56,,,78,,,56,,
{16},78,,,56,,,78,,,56,,,78,7b/8b,,
{16},34,,,56,,,34,,,56,,,34,,,
{16}12,,,34,,,12,,{4}1b-6[8:1]/2b-5[8:1],12,
{16}3,6,3,6,2,7,2,7,1,8,1,8,1,7,5,3,
{1}1b,

{4}8h[4:1],7h[4:1],{16}6h[16:3],,,7h[16:3],,,8,,
{4}1h[4:1],2h[4:1],{16}3h[16:3],,,2h[16:3],,,1,,
{4}2b/7b,{16}8-5[8:1],1,8,1,{4}8b,{16}1-4[8:1],8,1,8,
{16}1b,,,8h[16:3],,,7h[16:3],,,6h[16:3],,,{8}4,5,
{4}1h[4:1],2h[4:1],{16}3h[16:3],,,2h[16:3],,,1,,
{4}8h[4:1],7h[4:1],{16}6h[16:3],,,7h[16:3],,,8,,
{4}2b/7b,{16}1-4[8:1],1,1,1,{4}1b,{16}8-5[8:1],8,8,8,
{16}8b,,,1h[16:3],,,2h[16:3],,,3h[16:3],,,{8}5^7[8:1],4,

{4},{16}1,8,1,8,1,8,2,7,3,6,4,5,
{16}3,4,3,4,3,,6,5,6,5,6,,1,8,1,8,
{4}27,{16}8,1,8,1,8,1,7,2,6,3,5,4,
{16}7,8,7,8,7,,2,1,2,1,2,,5,4,5,4,
{4}36,{16}7,8,7,8,7,8,6,1,5,2,4,3,
{16}6,5,6,5,6,,3,4,3,4,3,,8,1,8,1,
{4}27,{16}2,1,2,1,2,1,3,8,4,7,5,6,
{16}4,5,4,5,3,6,3,6,2,7,2,7,1,8,1,8,

{2}2b^7[8:1]/7b^4[8:1],{8},1-4[8:1]/6-1[8:1],,16,
{4},{16},78,,56,,34,,{16}12,12,,,,
{4}2b/7b,{16}1,8,1,8,1,8,2,7,3,6,4,5,
{16}2,1,2,1,2,,7,8,7,8,7,,4,5,4,5,
{4}3b/6b,{8},{16},24,{8}24,{16},57,{8}57,{16}18,,
{16},36,,,8,8,{8}8,{16}1^4[8:1],1,{8}1,{4}18,
{4}2b/7b,{16}2,1,2,1,2,1,3,8,4,7,5,6,
{16}4,6,4,6,3,7,3,7,2,8,2,8,1b,1,1,1,

{16}1,1,1,1,1,1,1,1,1,1,1,1,1,1,1,1,
{16}1,1,1,1,1,1,1,1,1,1,1,1,1,1,1,1,
{16}1,1,1,1,1,1,1,1,1,1,1,1,1,1,1,1,
{16}1,1,1,1,1q5[8:1]*p5[8:1],1,1,1,{4}1,27,
{16}1b,1,1,1,1,1,1,1,1,1,1,1,1,1,1,1,
{16}1b,1,1,1,1,1,1,1,1b,1,1,1,1,1,1,1,
{16}1b,1,1,1,1b,1,1,1,1b,1,1,1,1b,1,1,1,
{16}1b,1,1,1,1,1,1,1,1,1,1,1,1,1,1,1,
{12}1,8,1,7,5,6,2,4,3,5,4,5,
{8}1b/8,2b/7,3b/6,4b/5,{2}4-1[8:1]/5b-8[8:1],

{2}2h[4:1]/7h[4:1],{2}4h[16:3]/5h[16:3],
{4}36,{16}8,7,6,5q4[16:5]*p6[16:5],2,3,4,5,{4},
{4},38,{2}5h[16:3]/6h[16:3],
{4}47,{16}1,2,3,4q3[16:5]*p5[16:5],7,6,5,4,{4},
{4},16,{2}3h[16:3]/4h[16:3],
{4}25,{16}5,6,7,8q7[16:5]*p1[16:5],3,2,1,8,{4},
{4},25,{2}7h[16:3]/8h[16:3],
{4}16,{16}4,3,2,1p2[16:5]*q8[16:5],6,7,8,1,{4},

{4},7h[4:1],{16}6h[16:3],,,7h[16:3],,,8,,
{16}1h[16:3],,,8h[16:3],,,7h[16:3],,,6h[16:3],,,{8}4,5,
{8}12,3,4,56,78,6,5,34,
{4}1h[16:3]/2h[16:3],4h[16:3]/5h[16:3],7h[16:3]/8h[16:3],3b/6b,
{4}1h[4:1],2h[4:1],{16}3h[16:3],,,2h[16:3],,,1,,
{16}8h[16:3],,,1h[16:3],,,2h[16:3],,,3h[16:3],,,{8}5,4,
{16}7h[8:1]/8h[8:1],,,4h[8:1]/5h[8:1],,,12,,{8},36,{16}24,24,{8},
{16}1h[8:1]/2h[8:1],,,4h[8:1]/5h[8:1],,,78,,{8},36,{16}57,57,{8},
{4}4,{8}4,{16},8,{8}1,36,{4}1b/8b,

{4}4-2[8:1]/5-2[8:1],4-8[8:1]/5,4-7[8:1]/5-7[8:1],4/5-1[8:1],
{4}4-2[8:1]/5-2[8:1],4-8[8:1]/5,4-7[8:1]/5-7[8:1],45,
{4}1b-3[8:1]*-4[8:1],1b-6[8:1]*-7[8:1],1b,{16}4,3,2,1,
{8}7b/8b,5b/6b,3b/4b,1b/2b,{2}3b^1[8:1]/8b^6[8:1],
{12}2b/6b,2b/6b,2b/6b,3b>7[4:1]/7b<3[4:1],3b/7b,3b/7b,3b-7[6:1]/7b-3[6:1],
E

Re:MASTER


  • {2}5,{16}5,,,1,8,,27,, 3,,3,4,2,,,,2,,4,3,24,,,,6,,6,5,7,,,,7,,7,5,6,,57,, 3,,3,4,2,,,,2,,4,3,24,,,,6,,,57,57,,,24,24,,{8}8,1,8, -- 名無しさん (2023-03-01 08:39:41)
  • 上の部分をこのように修正{2}5,{16}5,,,1,8,,27,, 3,,3,4,2,,,,2,,2,4,3,,24,,,6,,6,5,7,,,,7,,7,5,6,,57,, 3,,3,4,2,,,,2,,2,4,3,,24,,,6,,,57,57,,,24,24,,{8}8,1,8, -- 名無しさん (2023-03-01 08:40:26)
  • もう少し譜面確認してから公開してくれ〜 -- Ra. (2023-03-01 19:27:17)
  • MASTER譜面の{16}7,7q4[8:1],→{16}7q4[8:1],7,の箇所の修正、SLIDEの速度の修正、HOLDの終点の修正を行いました。 -- けもがみ (2026-04-13 22:09:08)
名前:
コメント:

タグ:

+ タグ編集
  • タグ:
最終更新:2026年10月04日 21:11