アットウィキロゴ

ウッーウッーウマウマ(゚∀゚)

アーティスト Caramell/Caramelldansen [cover]

BPM EASY BASIC ADVANCED EXPERT MASTER Re:MASTER
164 3 6 9 9+ 13 -

EXPERT MASTER Re:MASTER
譜面制作者 譜面-100号 ニャイン -

EASY


BASIC

(164.75){1},
{1}7/8 ,
{1}1/2,
{1}2/8,
{1}1/7,
{1}7-2[2:1],,
{1}3-6[2:1],,
{1}6h[4:3],
{1}7h[4:3],
{4}1,8,1,8,
{4}1,8,1,8,
{4}2,7,2,7,
{4}2,7,2,7,
{4}1,8,1,8,
{4}1,8,1,8,
{4}2,7,2,7,
{4}2,7,2,7,
{4}1,2,1,2,
{4}1,2,1,2,
{4}8,7,8,7,
{4}8,7,8,7,
{4}5,4,5,4,
{4}5,4,5,4,
{1}6-2[4:1],
{1}2-7[4:1],
{4}7,8,7,8,
{4}7,8,7,8,
{4}1,2,1,2,
{4}1,2,1,2,
{4}5,4,5,4,
{4}5,4,5,4,
{4}8,1,8,1,
{4}7,8,1/8,1b,
{4}7,8,7,8,
{4}7 ,8,7,8,
{4}1,2,1,2,
{4}1,2,1,2,
{4}5,4,5,4,
{4}5,4,5,4,
{4}8,1,8,1,
{4}8,1,8,1,
{4}7/8,7/8,{2}7/8,{1},
{4}1/2,1/2,{2}1/2,{1},
{4}4/5,4/5,{2}4/5,{1},
{4}1/8,1/8,{2}1/8,{1},
{4}7,8,7,8,
{4}7,8,7,8,
{4}1,2,1,2,
{4}1,2,1,2,
{4}5,4,5,4,
{4}5,4,5,4,
{4}8,1,8,1,
{4}7,8,1/8,1b,
{4}7,8,7,8,
{4}7,8,7,8,
{4}1,2,1,2,
{4}1,2,1,2,
{4}5,4,5,4,
{4}5,4,5,4,
{4}8,1,8,1,
{4}8,1,1/8,1/8,
E

ADVANCED

(164.75){1},
{1}6-1[2:1],
{1}2-5[2:1],
{1}4-7[2:1],
{1}8-3[2:1],
{1}3h[4:3],
{1}5h[4:3],
{1}7^2[2:1],
{1}3^6[2:1],
{2}4h[2:1],5h[2:1],
{2}6h[2:1],7h[2:1],
{4}8,1,8,1,
{4}8,1,8,1,
{4}8,1,8,1,
{4}8,1,8,1,
{4}1/7,2/8,1/7,2/8,
{4}1/7,2/8,1/7,2/8,
{4}8,1,8,1,
{4}8,1,8,1,
{4}1/7,2/8,1/7,2/8,
{4}1/7,2/8,1/7,2/8,
{4}7,2,7,2,
{4}7,2,7,2,
{4}4/6,3/5,4/6,3/5,
{4}4/6,3/5,4/6,3/5,
{1}8^3[4:1],
{1}2^7[4:1],
{4}7,1/2,7,1/2,
{4}7,1/2,7,1/2,
{4}7/8,2,7/8,2,
{4}7/8,2,7/8,2,
{4}7,1,7,1,
{4}1/7,2/8,1/7,2/8,
{4}8,2,8,2,
{4}7/8,1/2,2/6,3b/7b,
{4}8,1,8,1,
{4}8,1,8,1,
{4}5/6,3/4,5/6,3/4,
{4}5/6,3/4,5/6,3/4,
{4}1/7,2/8,1/7,2/8,
{4}1/7,2/8,1/7,2/8,
{4}5/6,3/4,5/6,3/4,
{4}7/8,1/2,2/6,3/7,
{4}7/8,7/8,{2}7/8,{1},
{8}1/2,,1/2,,1/2,,3,3,
{4},4-7[4:1],,,
{4}1/2,1/2,{2}1/2,{1},
{8}7/8,,7/8,,7/8,,6,6,
{4},5-2[4:1],,,
{4}8,1,8,1,
{4}8,1,8,1,
{4}5/6,3/4,5/6,3/4,
{4}5/6,3/4,5/6,3/4,
{1}6^3[4:1],
{4}7,2,7,2,
{1}3^6[4:1],
{4}3/6,2/6,3/7,2/7,
{4}7/8,2,7/8,2,
{4}7/8,2,7/8,2,
{4}7,1/2,7,1/2,
{4}7,1/2,7,1/2,
{4}1/6,3/8,1/6,2/8,
{4}1/7,2/8,1/7,2/8,
{4}7/8,1/2,7/8,1/2,
{4}7/8,1/2,2/6,3/7,
E

EXPERT

(164.75){1},
5-8[4:3],
,
4-1[4:3],
{4},,,8,
{1}3-8[4:3],
,
6-1[4:3],
,
{2}1,1,
1,1-5[8:1],

{4}
18,12,18,12,
78,18,78,18,
67,78,67,78,
18,78,18,78,
18,12,18,12,
23,12,23,12,
18,78,18,78,
12,18,12,18,

7,6,2,3,
17,28,17,28,
1,4,8,5,
17,28,17,28,
56,4,56,4,
56,4,56,4,
34,5,34,5,
34,5,34,5,

78,18,78,18,
{8}2,1,,1,,1,2,,
{4}12,18,12,18,
{8}7,8,,8,,8,7,,
{4}67,56,45,34,
23,34,45,56,
67,78,18,12,
27,8b,1b,8b,

17,28,17,28,
17,28,17,38,
16,28,17,28,
17,12,18,12,
17,28,17,28,
17,28,17,12,
78,12,17,28,
17,38,16,38,

{8}
17,,17,,7,1,8,2,
,17,,28,,7,1b,,
28,,28,,1,7,2,8,
,1,7,,28,,17,,
28,,28,,2,8,1,7,
,28,,17,,2,8b,,
17,,17,,8,2,7,1,
,8,2,,17,,28,,

{4}
17,26,17,26,
28,37,28,37,
78,16,78,16,
12,83,12,83,
23,34,45,56,
67,56,45,34,
23,12,18,78,
27,8b,1b,8b,

16,38,16,38,
16,38,16,38,
16,38,16,38,
25,47,16,38,
16,38,16,38,
16,38,16,38,
17,28,16,38,
25,47,16,38,
{1}
,,
E

MASTER

(164.75){1},
{16}27,,,1,,,1,,{4},8,
,7,,6,
{16}7,,,7,,,7,,{4},8,
,1,,2,
{16}12,,,18,,,8/7^2[2:1],,{4},,
,,6,6,
{16}5,,,5,,,5,,{4},4^7[2:1],
,,,,
6h[2:3]/7,8,,1,
,2,,27,

{16}
28,,1,8,,8,7,,7,6,,6,5,,4,,
46,,5,4,,4,3,,3,2,,2,1,,8,,
18,,7,6,,6,5,,5,4,,4,3,,45,,
56,,6,7,,7,8,,8,1,,1,2,,1,,
17,,8,1,,1,2,,2,3,,3,4,,5,,
35,,4,5,,5,6,,6,7,,7,8,,1,,
18,,2,3,,3,2,,4,5,,5,6,5,6,,
34,,3,2,,2,1,,1,8,,8,7,,8,,

{4}28,17,28,17,
{8}28,7,,18,,7,6,7,
{4}45,67,23,78,
{8}12,3,,18,7,6,5,4,
{4}34,56,12,78,
23,67,34,{8}56,45,
{4}56,67,23,78,
12,28,17,28,

{8}
6,67,,24,3,24,,27,
1,1/8b,,7/6b,,18,,67,
2,12,,68,7,68,,36,
5,5/4b,,3/2b,,45,,23,
4,45,,56,4,34,,34,
5,56,,56,4,34,,34,
8,78,,78,1,12,,12,

,78,37,35,4/8b,,2b/6,,

12,,78,,12,,5,45,
,7,67,,23,,67,,
56,,34,,56,,1,18,
,5,56,,17,28,13,,
15,,48,,15,,2,12,
,3,34,,45,,56,,
16,,38,,18,,2,12,
,3,23,,67,,18,,

13,,28,,7,6,7,6,
,57,,46,,57,8b,,
78,,12,,4,5,4,5,
,56,,34,,56,,,
68,,17,,2,3,2,3,
,24,,35,,24,1b,,
38,,16,,38,,16,,
{1}4^1[4:1]/5^8[4:1],

{8}
8,78,,78,6,56,,56,
7,6/7-2[8:1],,,,8,8b,,
3,34,,34,2,12,,12,
3,4/3-6[8:1],,,,1,1b,,
{4}28,17,24,35,
17,28,57,{8}46,7,
{4}78,12,78,12,
7,3b/6b,2b/7b,1b/8b,

{8}
13,2,68,7,13,2,68,7,
13,2,8/6-3[8:1],,2-7[8:1],,,,
46,5,35,3,46,5,35,3,
46,5,5/3-7[8:1],,5-1[8:1],,,,
13,2,68,7,13,2,68,7,
24,3,57,6,24,3,57,6,
12,2,78,8,23,3,67,6,
34,3,56,5,15,,3/7^2[2:1],,
{1}
,,
E

Re:MASTER


  • ダウンロードの仕方は? -- たた (2023-05-21 02:16:55)
名前:
コメント:

タグ:

+ タグ編集
  • タグ:
最終更新:2026年10月01日 20:33