BASIC
ADVANCED
(222)
{2}3h[1:1],,4,5,6h[1:1],,5,4,
3h[1:1],,4,45,4h[1:1]/5h[1:1],,,36,
{1}5h[2:1]/6h[2:1],{4}6,6,5,,{1}3h[2:1]/4h[2:1],{4}3,3,4,,
{1}4h[2:1]/5h[2:1],{4}4,4,5,,{1}4h[2:1]/5h[2:1],{4}5,4,5x,,
{4}2,2,2,,1,1,1,,8,8,8,,7,7,7,,
6,6,56,,3,3,{2}34,2-6[2:1],,,7b/8b,
{4}6,6,56,,4h[4:1]/5h[4:1],,45,,3,3,34,,4h[4:1]/5h[4:1],,45,,
7,7,78,,1h[4:1]/8h[4:1],,18,,2,2,1,,1h[4:1]/8h[4:1],,27,2x/7x,
3,3,24,,5h[4:1]/6h[4:1],,56,,6,6,57,,3h[4:1]/4h[4:1],,34,,
2,2,2,,8,8,{2}8,1-5[2:1],,,4x/6x,
B6,C,B2,,B3,C,B7,,B5,C,B1,,{0.5}Chf[1:1],
{2}2-6[2:1],,,7,7-3[2:1],,,2,1-5[2:1],,,7,8-4[2:1],,,3x/5x,
{4}3,3,4,4,{2}45,36,6h[2:1],5,3h[2:1],4,
{4}6,6,5,5,{2}45,36,3h[2:1],4,2h[2:1]/5h[2:1],,
{4}2,2,3,3,{2}45,36,7h[2:1],5,2h[2:1],4,
{4}7,7,6,6,45,,36,,2,2,1,1,18,18,2x/7x,,
{1}3h[1:1],4h[1:1],5h[1:1],{2}6,56,
{1}6h[1:1],5h[1:1],4h[1:1],{4}3,3,3,,
{1}5h[2:1]/6h[2:1],{4}6,6,5,,{1}3h[2:1]/4h[2:1],{4}3,3,4,,
7,7,78,,2,2,12,,8,8,1,1,8h[2:1],,1,,
{0.5}7^4[4:3],3^8[4:3],
{4}7,7,6,6,5,5,45,,2,2,3,3,45,45,3x/6x,,
3,4,5,6,57,57,57,,6,5,4,3,24,24,24,,
2,2,1,1,28,28,28,,7,7,8,8,17,17,17,,
3,45,6,45,3,3,24,,6,45,3,45,6,6,57,,
8,8,7,7,6,6,56,,4,4,3,3,2,2,1b/2b,,
3,3,4,4,5,6,47,,6,6,5,5,4,3,25,,
1,1,28,,8,8,17,,45,45,{2}36,E5,B3/B6,
{1}Cf,,,,
E
EXPERT
(222)
{0.5}4xV25[4:5]/6xV85[4:5],
{1}1x-4[4:3]/1x-6[4:3],{4},,35,26,
{1}1x-5[4:3]/7x-3[4:3],{4},,35,46,
{1}5x-1[4:1]/7x,2x/4x-8[4:1],
{8}5h[4:1]/6h[4:1],,,56,,,4h[4:1]/7h[4:1],,,47,,,{4}56,47,
{8}3h[4:1]/4h[4:1],,,34,,,2h[4:1]/5h[4:1],,,25,,,{4}34,25,
{8}1h[4:1]/8h[4:1],,,18,,,2h[4:1]/7h[4:1],,,27,,,{4}18,27,
3,34,6,56,1,18,Cf,,
56,56,67,67,56,56,47,,34,34,23,23,34,34,18,2b/7b,
{8}5,5,5,,3,3,3,,7,7,7,,1,1,1,,
27,27,27,,{16}1,8,1,8,1,8,1,8,{4}1-5[4:1],,,3b/7b,
45,45,{8}5,5,4,4,6,6,5,5,{4}7,56,
34,45,{8}3,3,5,5,4,4,6,6,,4,5,4,
{4}45,45,{8}4,4,5,5,3,3,4,4,{4}2,34,
56,34,{8}5,5,3,3[8:5],{4},,,8b,
18,18,{8}8,8,1,1,7,7,8,8,{4}6,78,
12,18,{8}7,7,1,1,8,8,2,2,,18,,,
7,7,8,8,{4}6,25,{8}2,2,1,1,{4}3,47,
{8}2,2,7,7,{16}1,8,1,8,1,8,1s5[8:5],8,{1},
{4}6h[4:1],5,6h[4:1],3,6h[4:1],5,6h[4:1],4,
6h[4:1],5,6h[4:1],2,6h[4:1],5,56,18,
3h[4:1],4,3h[4:1],6,3h[4:1],4,3h[4:1],5,
3h[4:1],4,3h[4:1],7,3h[4:1],4,1b,1b/8b,
6h[4:1],B4,6h[4:1],B2,6h[4:1],B3,6h[4:1],E1,
6h[4:1],B4,6h[4:1],B2,6h[4:1],B1,5x/6x,,
3h[4:1],B5,3h[4:1],B7,3h[4:1],C,3h[4:1],E1,
3h[4:1],B5,3h[4:1],B7,3h[4:1],C,1b,1b,
{8}34,,6,5,6,,47,,3,3,,24,,1,1,,
{4}E6,B5,B4,E4,E8,B8,B2/B3/E4,,
{8}56,,3,4,3,,25,,6,6,,57,,8,8,,
{4}E4,B4,B5,E6,{1}Ch[2:1],
{8}12,,7,8,7,,16,,2,2,,13,,4,4,,
{4}E3,B3,B4,E5,E7,B7,E1/B1/B2,,
{8}78,,2,1,2,,38,,7,7,,68,,4,4,,
4,4,5,5,3,3,6,6,2,2,7,7,{16}1,8,1,8,1,8,1,8,{0.25}1>8[4:7],
{1}3h[1:1],4h[1:1],5h[1:1],{4}6h[2:1],,5,45,
3h[1:1],4,4,4,5h[1:1],4,4,4,4h[1:1],5,5,5,6h[1:1],5,5,5,
3h[4:1],4,6h[4:1],5,2h[4:1],3,7h[4:1],6,
2h[4:1],1,7h[4:1],8,{8}1,1,7,7,3,3,5b,,
{0.5}4x>5[4:5]/5x,4x/5x<4[4:5],
{4}24,3,57,6,24,1,57,8,
{8}2,2,7,7,18,18,{4}18,B4f/B5f/Cf,,,1b/8b,
{2}5x-1[8:1]/7x,2x/4x-8[8:1],{4}12,34,56,78,
{8}3,3,24,,6,6,57,,18,,7,7,68,,3x/7x,,
{2}2x/4x-8[8:1],5x-1[8:1]/7x,{4}78,56,34,12,
{8}6,6,57,,3,3,24,,{4}78,12,1h[4:1]/8h[4:1],,
{8}1,8x,1,8x,1,7x,1,7x,1,5x,1,5x,1,6x,1,6x,
1,7x,1,6x,1,5x,1,4x,1,6x,{4}1,1b/5b,3b/7b,
{8}8,1x,8,1x,8,3x,8,3x,8,5x,8,3x,8,4x,8,,
1x/8x,,3x/6x,,12,1x/2x,,78,7x/8x,,1x/8x,1x/8x,{4}1x/8x,2b/7b,
56,67,56,78,56,67,56,3b/7b,
34,23,34,12,34,23,{8}8b,8b,8b,,
4,4,5,5,3,3,6,6,2,2,7,7,1,1,8,8,
{16}2,7,2,7,2,7,2,7,1,8,1,8,1,8,1,8,
{1}1s5[2:1],E3f/E7f/Cf,,,,,,,,
E
MASTER
(222)
{1}2x/7x^2[2:1],3x^6[2:1]/6x,3x/6x<3[2:1],2x>7[2:1]/7x,
4x/7x>4[2:1],1x>6[2:1]/6x,6hx[2:1]/8x>5[2:1],1x<4[2:1]/3hx[2:1],
{8}7h[4:1]/8h[4:1],,,1h[4:1]/7h[4:1],,,2h[4:1]/7h[4:1],,,3h[4:1]/7h[4:1],,,47,,25,,
1h[4:1]/2h[4:1],,,2h[4:1]/8h[4:1],,,27,27,,2h[4:1]/6h[4:1],,,35,,46,,
7h[4:1]/8h[4:1],,,1h[4:1]/7h[4:1],,,2h[4:1]/7h[4:1],,,3h[4:1]/7h[4:1],,,47,,25,,
{4}3/1x<5[2:1],3,3,3,34,24,{8}1x,1x,8x,,
{4}7v4[8:1],8^3[8:1],7v4[8:1],8^3[8:1],6v3[8:1],8,{8}8,1,27,,
{4}2v5[8:1],1^6[8:1],2v5[8:1],1^6[8:1],3v6[8:1],1,{8}1,8,27,,
8-4[8:1],8,2,2,1-5[8:1],1,7,7,8^5[8:1],8,2,2,1^4[8:1],1,7,7,
{16}8,1,8,1,8,1,8,1,7,2,7,2,7,2,7,2,{4}7-3[8:1]*-5[8:1],,26,1b/8b,
{2}2-7[8:1]/6-3[8:1],{16}15,,3,4,3,4,3,,5,4,5,4,5,,2,4,2,4,{8}2,8,2,
{2}3-6[8:1]/7-2[8:1],{16}48,,6,5,6,5,6,,4,5,4,5,{8}4,C,,8,1,2,
{2}2-5[8:1]/6-1[8:1],{16}38,,2,1,2,1,2,,8,1,8,1,8,,3,1,3,1,{8}3,8,7,
{2}3-8[8:1]/7-4[8:1],{16}16,,7,8,7,8,{8}7<2[2:1],{4},,,1b/8b,
{2}3-6[8:1]/7-2[8:1],{16}48,,7,5,7,5,7,,3,5,3,5,3,,8,5,8,5,{8}8,1,7,
{2}2-7[8:1]/6-3[8:1],{16}15,,2,4,2,4,2,,7,4,7,4,{8}7,C,,1b/8b,,,
1,1,7,7,3,3,5,5,4,4,6,6,2,2,7,7,
{16}1,8,1,8,1,8,1,8,1,8,1,8,1,8,1,8V24[8:5]*V64[8:5],{1},
{4}34,2,{8}34,3,8,,{4}56,7,{8}56,6,1,,
{4}34,2,{8}34,3,8,,56,6,3,4,{4}1,27,
56,7,{8}56,6,1,,{4}34,2,{8}34,3,8,,
{4}56,7,{8}56,6,1,,{4}5x/6x,3x/5x,5x/7x,2x/5x,
{4}56,1,{8}56,7,18,,{4}34,8,{8}34,2,18,,
{4}56,1,{8}56,7,18,,{8}34,3,6,5,{4}8,27,
1-5[8:1]/2,4,4-8[8:1],7,7-3[8:1],2,2-6[8:1],7,
7-2[8:1],3-6[8:1],8-5[8:1],4-1[8:1],7-3[8:1],3V15[4:1]*V16[4:1],,,
{8}47,,3,24,,78,16,,{16}E8,E1/E7,E2/E6,E3/E5,{8}E4,C,,6,57,,
{4}6h[4:1],B5/B6,3h[4:1],B3/B4,7h[4:1],B5/B6,2h[4:1],B3/B4,
{8}25,,6,57,,12,38,,{16}E2,E1/E3,E4/E8,E5/E7,{8}E6,C,,3,24,,
{4}3h[4:1],B3/B4,6h[4:1],B5/B6,{1}1xv4[2:1]/7xv4[2:1],
{8}38,,7,68,,34,25,,{16}E4,E3/E5,E2/E6,E1/E7,{8}E8,C,,2,13,,
{4}2h[4:1],B1/B2,7h[4:1],B7/B8,3h[4:1],B1/B2,6h[4:1],B7/B8,
{8}16,,2,13,,56,47,,{16}E6,E5/E7,E4/E8,E1/E3,{8}E2,C,,7,68,,
2,8,4,6,1,7,3,5,{12}2x,4x,3x,7x,5x,6x,{16}1x,8x,1x,8x,1x,8x,1x,8x,
{1}1xw5[2:1],8w4[2:1],1-5[2:1]/2-4[2:1],7-5[2:1]/8-4[2:1],
2-7[2:1]/3-6[2:1],6-3[2:1]/7-2[2:1],8w4[2:1],{4}2x,3x,4b,,
E3,B6/E7,E4,B8/E1,E3,B6/E7,E4,B8/E1,
E7,B3/E3,E6,B1/E1,E7,B3/E3,E6,B1/E1,
E4/E6,B7/E8,E4/E6,B2/E2,E4/E6,B7/E1,E4/E6,B2/E1,
B4/B5/E4/E6,B7/B8/E1/E7,B4/B5/E4/E6,B1/B2/E1/E3,{1}Chf[2:1],
{2}2b>6[4:1],1,7b<3[4:1],8,2b>6[4:1],7b<3[4:1],{4}1,2,3b/8b,,
4b/5,2/4b,4b/7,1/4b,{8}4b,8,4b,8,4b,8,4b,8,
{16}4b,8,4b,8,4b,8,4b,8,4b,8,4b,8,4b,8,4b,8,{4}4-8[8:1],6-2[8:1],1,3b/7b,
{8}1/5-1[8:1],,4,4,,{16}2,1,{8}2,38,47,6,25,1,{16}1x/6x,,,3x/8x,,,4x,,
{8}2x-6[8:1]/6x,,8,8,,{16}6,5,{8}6,47,{16}5x,,,4x/5x,,,{8}3x/6x,{2}3x-5[8:1]/6x-8[8:1],
{8}4-8[8:1]/7,,5,5,,{16}7,8,{8}7,16,25,3,47,8,{16}3x/8x,,,1x/6x,,,5x,,
{8}3x/7x,8,1,2x/6x,1,8,{4}1x-4[8:1]/7x,1-6[8:1],1-5[8:1],1,37,
{8}2-5[8:1],2,7-3[8:1],7,2-5[8:1],2,7-3[8:1],7,8-4[8:1],8,7-5[8:1],7,1,2,38,,
7-4[8:1],7,2-6[8:1],2,7-4[8:1],7,2-6[8:1],2,1-5[8:1],1,2-4[8:1],2,8,7,16,,
12,3,12,8,12,3,4,5,78,6,78,1,78,6,5,4,
35,6,47,3,26,7,38,2,15,,48,48,48,48,48,,
{4}7v4[8:1],1^4[8:1],8v5[8:1],2^5[8:1],1v6[8:1],4,{8}4,3,26,,
{4}2v5[8:1],8^5[8:1],1v4[8:1],7^4[8:1],8v3[8:1],5,{8}5,6,37,,
4-8[8:1],4,6,6,5-1[8:1],5,3,3,4^1[8:1],4,3,3,5^8[8:1],5,6,6,
{16}4,5,4,5,4,5,4,5,3,6,3,6,3,6,3,6,
{4}3-1[4:1],1v8[4:1],8-6[4:1],6,
{1}5b,,,,,,,,
E
Re:MASTER
(222)
{1}8b>8[1:1],8>8[1:1],8b>8[1:1],8>8[1:1],
4bq1[4:3],5p8[4:3],2b>7[4:3],2b>7[4:3],
{8}2,,7,2h[4:1],,6,2h[4:1],,5,2h[4:1],,4,2,,45,,
2/7h[4:1],,3,7h[4:1],,4,7h[4:1],,5,7h[4:1],,6,67,,45,,
B3/B6/Cf,,1x/8x,1x/8x,,27,27,,34,34,,56,56,,45,,
{2}2hx[4:1]/4hx[4:1],5h[4:1]/7h[4:1],3h[4:1]/4h[4:1],{8}1x,1x,1x/6x,,
{24}2x,3x,4x,,,,2x,3x,4x,,,,2x,3x,4x,,,,2x,3x,4x,,,,
1x,2x,3x,,,,1x,2x,3x,,,,1x,2x,3x,,,,{4}8x,
{24}7x,6x,5x,,,,7x,6x,5x,,,,7x,6x,5x,,,,7x,6x,5x,,,,
8x,7x,6x,,,,8x,7x,6x,,,,8x,7x,6x,,,,{4}1x,
{8}2,2,3,3,4,4,5,5,6,6,7,7,8,8,1,1,
{16}8x,2x,8x,2x,8x,2x,8x,2x,7x,3x,7x,3x,6x,4x,6x,4x,
{4}5x-3[8:1],2x-6[8:1],7x-3[8:1],8b,
1x-5[8:1],5x,{16}46,,7,8,7,8,6h[8:1],,3,4,3,4,2h[8:1],,7,8,7,8,6h[8:1],,2,1,2,1,
{4}3x-6[8:1],8x,{16}57,,3,4,3,4,2h[8:1],,6,5,6,5,{8}7,1x/8x,,2b/6,2b/6,3b/5,
{2}2b-7[8:1]/6-3[8:1],{16}1x/5x,,2,4,2,4,3h[8:1],,7,5,7,5,6h[8:1],,2,4,2,4,1h[8:1],,7,8,7,8,
{4}6x-3[8:1],3x,{16}24,,1,8,1,8,{8}1,,26,26,,3/7v8[8:1],,,,
{4}2b-6[8:1],6b,{16}57,,8,1,8,1,7h[8:1],,2,4,2,4,3h[8:1],,7,5,7,5,6h[8:1],,2,4,2,4,
{4}1b-5[8:1],5b,{16}46,,7,3,7,3,5h[8:1],,2,6,2,6,{8}8,1-5[8:1]/7-4[8:1],,1x/7x,,,
{8}7,7,6,6,5,5,4,4,3,3,2,2,1,1,8,8,{16}1,7,1,7,1,7,1,7,2,6,2,6,3,5,3,5,{1}4V28[2:1]*V68[2:1],
{4}2h[2:1],4,5h[2:1],4,3h[2:1],4,5h[2:1],4,2h[2:1],3,8h[2:1],7,1,{8}25,25,34,,45,,
{4}3h[2:1]/6,5,7h[2:1],5,4h[2:1],5,6h[2:1],5,3h[2:1],2,7h[2:1],8,5,45,34,25,
3/4h[2:1],C,3h[2:1],E3,4h[2:1],E6,3h[2:1],E2,6h[2:1],E8,5h[2:1],E4,6,{8}47,47,56,,46,,
{4}3/5h[4:7],B5/B6/C,3,B5/B6/C,3,B5/B6/C,3,B5/B6/C,
27,{8}B5/B6/C,B5/B6/C,B5/B6/C,B5/B6/C,B5/B6/C,B5/B6/C,{2}B5/B6/Ch[2:1],8b,
{8}28,,34,34,2h[4:1]/5,,1h[4:1],,{16}2x,1x/3x,4x/8x,5x/7x,{8}6x,5x/7x,,24,24,,
{4}4-1[8:1]/5,8V62[4:1],{8}2V48[4:1],1,1,1,1h[4:1],,8,1h[4:1]/7,,7,2b/6b,,
17,,56,56,4/7h[4:1],,8h[4:1],,{16}7x,6x/8x,1x/5x,2x/4x,{8}3x,2x/4x,,36,36,,
{4}4/5-8[8:1],1V37[4:1],{8}7,8,8v2[4:3]*v5[4:3],8,{1},
{8}46,,78,78,1/6h[4:1],,5h[4:1],,{16}6x,5x/7x,4x/8x,1x/3x,{8}2x,1x/3x,,27,27,,
{4}1/8-5[8:1],4V26[4:1],{8}6V84[4:1],5,5,5,5h[4:1],,4,5h[8:1],3,5,2b/6b,,
35,,12,12,3h[4:1]/8,,4h[4:1],,{16}3x,2x/4x,1x/5x,6x/8x,{8}7x,6x/8x,,17,17,,
8,8,6,6,4,4,2,2,{12}7x,5x,6x,2x,4x,3x,{16}5x,4x,5x,4x,5x,4x,5x,4x,
{1} Cf,,,,
{1}3h[4:3]/4h[4:15],2h[4:3],1h[4:3],{4}1,2,3,2,
{2}1h[4:1]/5<1[2:1],2h[4:1],3>7[2:1]/7h[4:1],6h[4:1],
2h[4:1]/5q2[2:1],3h[4:1],4p7[2:1]/7h[4:1],6h[4:1],
{4}56,45,34,23,12,18,78,{16}1,,1,8,{8}2,2,3,3,4,4,5<3[4:3],4,{1}3,
1h[2:1]/5b,4b/8h[2:1],1b/Ch[2:1],8b/Ch[2:1],
{4}2b/7b,4/5-8[4:5],3,2,{8}1b,1,1,1,1,1,1,1,
{16}1b,8,1,8,1,8,1,8,2,7,1,8,2,7,1,8,{4}2x/7x,,3x-1[8:1]/6x,3b,
2x/5-1[8:1],{8}3,4,5-1[8:1],8-6[8:1],5,{4}8-4[8:1],1^3[8:1]/8^6[8:1],1-5[8:1]/8,{8}15,6,7,
8-4[8:1],4,38,{4}2-6[8:1],1^7[8:1]/2,1-5[8:1]/2^4[8:1],12,{8}2x/8x,2x/8x,,3x/7x,4x/6x,
5x-1[8:1],,3,4,5-1[8:1],8-6[8:1],5,{4}8-4[8:1],1^3[8:1]/8^6[8:1],1-5[8:1]/8,{8}15,6,7,
8-4[8:1],4,8,2-8[8:1],,2-4[8:1],6-2[8:1],2,{4}6,48,35,46,
{8}78,1x-3[8:1],6,1x-7[8:1],4,1x-3[8:1],5,1x-7[8:1],4,1x-3[8:1],6,1x-5[8:1],4,1x,7,{16}2x/8x-6[8:1],3x,
{8}4x,8x-2[8:1],5,8x-6[8:1],3,8x-2[8:1],5,8x-6[8:1],3,8x,5,8x,4/8x,,26,,
35,2,1,8,7,6,5,4,35,6,47,3,26,7,1/8h[4:1],,
{16}3,7,3,7,2b,6,2,6,1,5,1b,5,8-4[8:1],4,8,4,{8}8b,,6b,6b,3b/7b,3b/7b,1b/5b,,
{24}1x,2x,3x,,,,1x,2x,3x,,,,2x,3x,4x,,,,2x,3x,4x,,,,
1x,2x,3x,,,,2x,3x,4x,,,,1x,2x,3x,,,,{4}8x,
{24}8x,7x,6x,,,,8x,7x,6x,,,,7x,6x,5x,,,,7x,6x,5x,,,,
8x,7x,6x,,,,7x,6x,5x,,,,8x,7x,6x,,,,{4}1x,
{8}18,1,24,2,35,3,46,4,57,5,68,6,17,7,28,8,
{16}12,8,7,6,45,3,2,1,{32}8x,1x,2,3,4,5,6,7,8,1,2,3,
{8}4,,1,8-4[8:1],1-5[8:1],8-6[8:1],1-3[8:1],8,1,
{1}Cf,,,,
E
- Re:MASTER譜面のノーツの配置ミス、EXノーツの修正を行いました。 -- けもがみ (2026-04-25 20:55:08)
最終更新:2026年04月25日 20:55