BASIC
ADVANCED
EXPERT
MASTER
(155)
{1}5-1[2:1],
{8}4,4,5,5,{4}4h[4:1],5h[4:1],{8}3,3,,34,,45,,5^3[4:1]/6,
{2},{8}5,5,5,5,5h[4:1],,E3,E7,E5,{24}E6,B5,B4,{8}E4,7,
,6,6,{4}5h[4:1],4h[4:1],3h[4:1],4h[4:1],{8}5^3[4:1],{2},
{16}E5,,C,,E3,E4,,E7,E6,,B1,B2,,B8,B7,,
4,5,4,,6,5,,3,4,,7,5,,2,4,,
{8}36,4,5,4,{4}36,35,{8}46,{4}4h[4:1],5h[4:1],4h[4:1],{8}3^6[4:1],
{2},{8}4,4,4,4,4h[4:1],,E7,E3,E5,{24}E4,B4,B5,{8}E6,2,
7,7,6,{4}4h[4:1]/5,3h[4:1],4h[4:1],5h[4:1],{8}6^3[4:1],{2},
{16}E5,,C,,E7,E6,,E3,E4,,B8,B7,,B1,B2,,
5,4,5,,3,4,,6,5,,2,4,,7,5,,
{8}2hx[8:1]/6hx[8:1],,26,15,{4}4-7[8:1]/8-3[8:1],48,
{8}3hx[8:1]/7hx[8:1],,37,48,{4}1-6[8:1]/5-2[8:1],15,
{8}2x/6x,4,3x/7x,5,2x/6x,45,3x/7x,45,
{16}2x,4,3,8,5,6,1,7,3h[4:1],,,,5,5,4,,
2x/6x,,7,8,7,1,7,2,{32}7,6,5,,{16}3,3h[8:1],,4,3,,
15,,2,4,3,5,4,6,{8}57,12,78,24,
{16}3x/7x,,2,1,2,8,2,7,{32}2,3,4,,{16}6,6h[8:1],,5,6,,
48,,7,5,6,4,5,3,{8}2h[8:1]/4,8h[8:1],6h[8:1],4,
{16}1x,8,1,8,1,8,1,8,{32}1,2,3,,{16}5,5,{32}2,3,4,,7,6,5,,
{16}1,8,1,8,1,8,1,8,{8}1/8x,67,45,23,
{24}1,8,1,8,1,8,1,8,1,8,1,8,2,7,2,7,2,7,3,6,3,6,3,6,
4,5,4,5,4,5,3,6,3,6,3,6,{2}2-6[8:1],
{16}4x/7x,,56,56,,47,47,,{4}8h[8:1],C,
{16}5x/6x,,47,47,,56,56,,{8}7,7,6b/8b,,
{16}2x/5x,,34,34,,25,25,,{4}1h[8:1],E1/E5,
{16}3x/4x,,25,25,,34,34,,{8}1b,2b,3b,4b,
{16}25,,3,4,3,4,3,4,{24}E4,B4,B5,{16}E6,C,,7,7,,
8,,6,5,6,5,6,5,{24}E6,B5,B4,{16}E4,C,,2,2,,
1,,2,4,2,4,2,4,{24}E4,B4,B5,{16}E6,C,,7,7,,
8,,7,5,7,5,7,5,{8}6h[8:1],5h[8:1],4h[8:1],3,
{1}2bq5[2:3]/5b,,7p4[2:3],,
{4}3h[2:1],,4,5h[2:1],,4,B6/E6,B3/E4,
6h[2:1],,5,3h[8:3],{8},4,4w8[4:1],,{2},
{4}2b/6b,
{16}6,4,4,,36,,,4,6,,4,,6,,5,5,
{8}6,4,46,4,56,4,
{4}36,
{16}3,5,5,,36,,,5,3,,5,,3,,4,4,3,,5,,
{4}3/6h[8:1],3/5h[8:1],3/E6,
{16}B6,4,4,,3/B7,,,4,E8,,3,,E6,,4,4,B6,,3,,B7,4,4,,3/E8,,4,,
6/E4,,,,B3,5,5,,6/B2,,,5,E2,,6,,E4,,5,5,{8}B3,6,27,45,1b/8b,,
3xqq6[8:3]/4x,,7,6,5-8[8:1],,5x,,
5x/6xpp3[8:3],,2,3,4-1[8:1],,4x,,
1x/8x,1,12,2,23,3,34,4,{16}5,5,6,6,7,7,8,8,{2}1-5[8:1],
{16}5h[8:1]/6,,7,5,6,5,7,,5h[8:1]/6,,7,5,6,5,7,,
5h[8:1]/6,,7,5,6,5,7,,56,56,,6,4,5,3,,
3/4h[8:1],,2,4,3,4,2,,3/4h[8:1],,2,4,3,4,2,,
3/4h[8:1],,2,4,3,4,2,,{2}3/4w8[8:1],
{8}2hx[16:1]/6hx[16:1],3hx[16:1]/4hx[16:1],6hx[16:1]/8hx[16:1],2hx[16:1]/3hx[16:1],
5hx[16:1]/7hx[16:1],1hx[16:1]/4hx[16:1],3hx[16:1]/5hx[16:1],{16}2x/6x,3x/7x,
{8}4x/8x,5hx[16:1]/7hx[16:1],1hx[16:1]/2hx[16:1],6hx[16:1]/7hx[16:1],
{24}4xz8[8:1]/8x,3x/7x,2x/6x,{8}1x/5x,,,
3hx[16:1]/7hx[16:1],5hx[16:1]/6hx[16:1],1hx[16:1]/3hx[16:1],6hx[16:1]/7hx[16:1],
2hx[16:1]/4hx[16:1],5hx[16:1]/8hx[16:1],4hx[16:1]/6hx[16:1],{16}3x/7x,2x/6x,
{8}1x/5x,2hx[16:1]/4hx[16:1],7hx[16:1]/8hx[16:1],2hx[16:1]/3hx[16:1],{2}1xw5[8:1]/5x,
{16}57,,8,8,5,8,,8,{8}5h[8:1],6h[8:1],5h[8:1],4h[8:1],
{16}3,,1,1,4,1,,1,{8}4h[8:1],3h[8:1],2h[8:1],1h[8:1],
{16}8,,5,5,8,5,,5,{8}7h[8:1],8h[8:1],1h[8:1],2h[8:1],
{16}1,,4,4,1,4,,4,{2}1w5[8:1],
{8}2hx[16:1]/6hx[16:1],3hx[16:1]/4hx[16:1],5hx[16:1]/8hx[16:1],1hx[16:1]/6hx[16:1],
2hx[16:1]/3hx[16:1],7hx[16:1]/8hx[16:1],4hx[16:1]/6hx[16:1],{16}3x/7x,2x/6x,
{8}1x/5x,4hx[16:1]/6hx[16:1],7hx[16:1]/8hx[16:1],3hx[16:1]/4hx[16:1],
{24}2x/6xz2[8:1],3x/7x,4x/8x,{8}1x/5x,,,
3hx[16:1]/7hx[16:1],5hx[16:1]/6hx[16:1],1hx[16:1]/4hx[16:1],3hx[16:1]/8hx[16:1],
6hx[16:1]/7hx[16:1],1hx[16:1]/2hx[16:1],3hx[16:1]/5hx[16:1],2x<4[16:7]/6x<4[16:7],{4},,,2b/7b,
{48}1x/8x,2,3,{16}4,,
{48}1x>6[48:5],2>7[48:5],3<8[48:5],{16}4<1[48:5],,
{8}1x,,4,35,46,57,{16}2,12,,3,34,,45,,6,5,{8}47,8,
16,{16}2,23,,5,45,,6,6,1,7,2,8,3,1,4,,35,35,,47,47,,{4}1w5[8:1]/5,1b,
{48}1x/8x,7,6,{16}5,,{48}8x<3[48:5],7<2[48:5],6>1[48:5],{16}5>8[48:5],,
{8}8x,,5,46,35,24,{16}8,8,2-6[8:1],6,4,8,{8}2,,57,{16}8,1,
27,,3,34,,6,56,,1,1,7,4,6,3,5,2,{8}1h[4:1]/4-8[4:1],,,3,{4}4xw8[8:1],Cf,
{2}7b>6[4:5]/2b,,,4-8[8:1],
{16}16,,2,24,,7,57,,{32}1,8,{16}1,7,4,6,3,5,2,4,,36,36,,15,15,,{4}4/8w4[8:1],8b,
{48}1x/8x,2,3,{16}4,,{48}1x>6[48:5],2>7[48:5],3<8[48:5],{16}4<1[48:5],,
{8}1x,,4,25,36,47,{16}8,8,{32}1,2,3,4,1,8,7,6,{4}1b^4[8:1]/5b^8[8:1],15,
{16}48,,7,57,,2,24,,{32}7,8,7,,2,1,2,,8,7,6,5,8,1,2,3,
{4}4x/8hx[4:1],{16}1,,3,6,4<4[4:1],5,4,5,{32}E5,E6,E7,E8,E1,E2,E3,E4,
{1}E5f/Cf,,,,,,,,,,
E
Re:MASTER
- スライドの記号と最後の{16}のタイミングを直しました。 -- 嵐雅 (2021-01-11 17:07:53)
- もとのふめんの{48}を全て{64}にしました。 -- 嵐雅 (2021-01-11 17:17:29)
- いくつかのマイナーな問題を変更しました -- Lixtar (2021-11-13 10:24:51)
- MASTER譜面のノーツの配置ミス、SLIDEの速度の修正、EXノーツの修正を行いました。 -- けもがみ (2026-05-20 12:40:15)
最終更新:2026年05月20日 12:40