アットウィキロゴ

GRÄNDIR

アーティスト Rigel Theatre feat. ミーウェル

BPM BASIC ADVANCED EXPERT MASTER Re:MASTER
170 4 7+ 11 13+ -

EXPERT MASTER Re:MASTER
譜面制作者 Jack サファ太 -

BASIC


ADVANCED


EXPERT

(170)
{4}45,6,6,6,45,3,3,3,
{12}45,,6,5,,5,4,,,34,,,45,,6,5,,5,4,,,34,,,
45,,6,5,,5,4,,,34,,,5,4,6,3,,,{2}2h[4:1]/7h[4:1],
{12}3,,3,4,,4,5,,,56,,,45,,3,4,,4,5,,,56,,,
45,,3,4,,4,5,,,56,,,4,,4,6,,6,2,,2,{4}8^5[8:1],
1b,{12}2h[6:1],,1,2,,,7h[6:1],,8,
7,,,3h[6:1],,4,2,,,6h[6:1],,5,
7,,,2h[6:1],,1,3,,,7h[6:1],,8,{4}6-3[8:1],1,8,1^4[8:1],
8b,{12}7h[6:1],,8,7,,,2h[6:1],,1,2,,,7h[6:1],,8,{2}6^3[8:1],
{4}1,78,56,34,1x/2x-4[8:1],8x-6[8:1],1x-5[8:1],8x<1[3:5],{0.5},
{2}3h[1:1],,4h[2:1],E5,5h[2:1],E5,{4}6h[2:1],,5,6,
{2}7h[2:1],5h[2:1],4h[2:1],2h[2:2],
{4}3,34,45,56,{2}6x-1[8:1]/7x,2x/3x-8[8:1],
{12}7x,,7,6,,6,5,,5,4,,4,3,,3,2,,2,{4}1h[4:1],8,
2x/7x,{12}6,,6,5x/7x,,,3,,3,{4}2x-5[8:1]/4x,8b,7b-4[8:1],1b,
{12}23,,2,3,,3,4,,4,5,,5,6,,6,7,,7,1x/8x,,,1x,8x,1x,
8x,,,6x,5x,7x,5x,,,3x,4x,2x,{4}4x-8[8:1],1b,B2f/B6f/Cf,,
{12}3h[12:5],,,,,4,{4}3,E3,E2,E1,E8,E7,
{12}6h[12:5],,,,,5,{4}6,B7,B8,B1,B2,,
{12}4h[12:5],,,,,5,{4}4,3,2,18,7,6,
{12}5h[12:5],,,,,4,5,,,2,,2,
1x/3x,,,5,,5,4x/5x,,,7,,7,6x/8x,,,3,4,2,6,5,7,1,8,1,
2x/7x,,,6,5,6,2x,,,3,4,3,7x,,,4,5,4,{4}6x-1[8:1],3x-8[8:1],
{12}6x,,,7,8,7,1x,,,2,1,2,{4}8x^5[8:1],1x-5[8:1],8x-4[8:1],1x^4[8:1],
{12}8b,,,6,5,6,1x,,,3,4,3,8x,,,1,8,1,{2}2x^4[8:1]/7x^5[8:1],
{4}1x-5[8:1]/8x,6,1x/8x-4[8:1],3,{2}1x^4[8:1]/5x^8[8:1],B1f/B4f/B5f/B8f/Cf,
{12}1x/8x,,1,8,,8,6,,6,8,,8,1,,1,3,,3,1,,1,8,,8,
6,,6,8,,8,1,,1,3,,3,{4}1x^4[8:1],5x,8x^5[8:1],4b,
{12} 1x/8x,,8,6,,6,8,,8,1,,1,3,,3,1,,1,8,,8,1,,1,
{4}3h[4:1],4h[4:1],5h[4:1],6<3[2:1],,,{2}4-1[8:1]/8-5[8:1],
C,C,C,{12}C,,,5x,4x,5x,{2}C,C,{4}C,E3/E7,{2}C,
B4/B5/E5/C,B2/B3/E3/C,B6/B7/E7/C,B1/B2/B7/B8/E1/C,
{4}E5/C,E4/C,E3/C,E2/C,E1/C,E8/C,E7/C,E6/C,
E5/C,,,6<4[2:1],5h[2:1],,,2<4[2:1],3h[2:1],,,6>8[2:1],7h[2:1],,,2>8[2:1],
1h[2:1],,,7<1[2:1],8h[2:1],,,3<1[2:1],2h[2:1],,,7>5[2:1],6h[2:1],,,,
3qq5[2:1]/6h[1:1],,,,4,7p3[4:1],2,,
3h[1:1]/6pp4[2:1],,,,5,2q6[4:1],7,,
7h[1:1],,2h[2:1],,,5h[4:1],4h[4:1],3>6[4:3],,,,,2h[2:1],,7x,4x/5x,
{2}1b/8b,E3,E7,{12}C,,,1x/8x,2x/7x,3x/6x,
{2}4x/5x,B2/B7/C,{4}45,1p4[4:1]/8q5[4:1],,,
{12}2b/7b,,,3x,4x,3x,2x/5x,,,6x,5x,6x,
4x/7x,,,1x,8x,1x,{2}2x-5[8:1]/7x-4[8:1],
{12}3x,4,3,6x,5,6,3x,4,2,6x,5,7,2x,1,2,7x,8,7,1x,8,1,2b/7b,,,
4x/5x,,2,3,,3,4,,4,5,,5,
(152)6x,,6,7,,18,18,,,3,6,4,
(144)
{4}5x[2:1],,2,3,{12}4h[2:1],,,,,5,5h[4:1],,,
(116)4,5,4,{16}6,5,{32}4,3,,,
{1}4h[4:7]/5h[32:57],,,,,,,,,,
E

MASTER

(170)
{4}E6,B5/B6,E4,B3/B4,E5,C,B2/B7/E3/E7,,
B5,C,B7,E7/E8,B2,C,B4,E3/E4,
B7,B5,B3,B2/E3,B7/E7,B4/B5/E5,C,,
B6,B5/E7,B2,B3/E2,B7,B6/E8,B3,E3/B4,
B6/B7,B2/B3,B4/B5,C,1h[4:1]/8h[4:1],,27,4/5-8[8:1],
{12}1b,,,2/7-2[8:1],,3,3,,,4-1[8:1]/5,,6,
6,,,3-6[8:1]/7,,8,8,,,1/7-4[8:1],,3,
3,,,2/5-2[8:1],,1,1,,,8/3-8[8:1],,6,{4}6,1x/7x,2x/8x,4-1[8:1]/5,
{12}8b,,,2/7-2[8:1],,3,3,,,1-4[8:1]/5,,6,
6,,,8,,7,{6}17,2x/4x,5x/6x,
{4}4/7-5[8:1],7-3[8:1]/8-2[8:1],7/8-4[8:1],5b/8b,
2-4[8:1]/6,1-7[8:1]/2-6[8:1],1-5[8:1]/2,1b/4b,
{1}2>8[4:5]/7<1[4:5],,4h[2:7]/5,
{24}E6,B5,,,,,{4},{24}E3,B3,,,,,{4},
{24}E7,B6,,,,,{4},{24}E2,B2,,,,,{4},
{24}E8,B7,,,,,{4},C,,
{12}36,,,B3,B4,E5,B7/E8,,,E7,B6,B5,
B2/E2,,,E3,B3,B4,B8/E8,,,B6,B5,E5,
B1/E2,,,E3,E8,E4,E7,E2,E6,E3,E1,E5,{2}Chf[2:1],1b,
{12}2-6[8:1],,,6-4[8:1],,8,8,,,37,,,
6-2[8:1],,,2-8[8:1],,4,4,,,37,,,
4-6[8:1],,,6-2[8:1],,8,{4}8-4[8:1],3,1-3[8:1],1-5[8:1]/4-7[8:1],14,8b,
{12}4-8[8:1]/5,,,8-2[8:1],,5,6-2[8:1],,,4x,,,
8-4[8:1],,,4-6[8:1],,1,2-6[8:1],,,8-4[8:1],,,
4/8xpp3[4:1],,,5,6,7,8xqq5[4:1],,,4,3,2,{4}1xw5[8:1],1,3b/7b,,
{1}4>6[2:3]/6h[2:1],4h[2:1],8x<2[2:3]/Ch[2:1],1h[2:1],
{4}2/8h[4:7],,B7/E8,B1/E1,B6/E6,B2/E3,B5/E5,B3/E4,
{4}5h[4:1]/6h[4:1],,56,{12}4,4,5,
{4}3h[4:1],4,25,{12}8,8,1,
{4}2x/7x,4x/5x,{12}7,5,6,2,4,3,
4x/5x,,7,1-5[8:1],8,2,1x,,2,8-4[8:1],1,7,
8x,,7,1-6[8:1],8,3,{6}2x,4x/5x,2x/4x,
{12}1x/8x,,2,8-4[8:1],1,7,8x,,7,1-5[8:1],8,2,
{4}1-7[8:1],1-3[8:1]/6,14,4b/8b,
{12}4x/5x,,2,8-3[8:1],1,6,8x,,7,1-6[8:1],8,3,
1x,,2,8^3[8:1],1,6,{6}8x,4x/5x,5x/7x,
{12}1,6,6,5,7,7,2,8,8,{4}C,3-8[8:1]/7-4[8:1],3x/7x,2b/6b,,
{12}4x/5x,,2,1-5[8:1],3,4,1,,7,8-4[8:1],6,5,
8,,2,1^6[8:1],3,4,{6}1x,4x/5x,2x/4x,
{12}1x/6x,,7,8-4[8:1],6,5,8,,2,1-6[8:1],3,4,
{4}1-4[8:1],1-5[8:1]/4,15,3b/8b,
{12}45,,7,8-4[8:1],5,4,8,,2,1-5[8:1],4,5,
1,,7,8^3[8:1],5,4,{6}8x,4x/5x,5x/7x,
{4}1-3[8:1]/6-4[8:1],1-7[8:1]/6-8[8:1],1w5[8:1]/6,1b,
3x^8[8:1]/7x^4[8:1],3b/7b,2x^5[8:1]/6x^1[8:1],2b/6b,
{1}B1f/B5f/Cf,{4},,,{12}6x,5x,6x,
{1}4hx[2:1]/7hx[1:1],{4}5h[2:1],6x,4x,4x/5x,
{12}4x,8,8,3,6,6,2,4,4,3x,,1,
8x,4,4,7,2,2,6,8,8,7x,,5,
3x,4,2,6,5,7,2,1,3,7,8,6,{4}Chf[2:1],,8,2b/7b,
{12}4x/5x,,3-8[8:1],6-3[8:1],,3,6,,1-3[8:1],4-8[8:1],,1,
4,,5-2[8:1],7-3[8:1],,5,{4}7,1x-5[8:1]/5x,
1-3[8:1]/6-8[8:1],1/6-4[8:1],1-4[8:1]*-6[8:1]/6,1,
3v8[8:1]/7v4[8:1],37,2b/6b,{12}1x/2x,3x/8x,4x/7x,
5x/6x,,7-5[8:1],4-8[8:1],,7,4,,4-7[8:1],1-4[8:1],,4,
1,,8-4[8:1],3-1[8:1],,8,3,,,3x/7x,,,
2-8[8:1],,5,2-4[8:1],,7-5[8:1],2,,7-1[8:1],2-6[8:1],,7,
{4}2b,4w8[8:1],4x,2b/6b,
{12}1x/8x,,7,5-1[8:1],6,4,5,,2,8-4[8:1],1,7,
{4}8<3[4:1],3<8[4:1],1,3,
{12}38,,2,4-8[8:1],3,5,4,,7,1-5[8:1],8,2,
{4}1>6[4:1],6>1[4:1],8,6x,
{12}4x/5x,,3,1-5[8:1],2,8,1,,6,4-8[8:1],5,3,
{4}4>7[4:1],7>4[4:1],5,7x,
{12}2,2,4,5,7,7,2,2,4,5,7,7,
2b,2,B4/E4,8b,8,B6/E7,{4}1bw5[8:1],Cf,
{1}3b/7b,{4},,,{12}B4/E4,B6/B7,B1/E2,
{1}Ch[2:1],{12}8,2,B5/E6,1,7,B4/E4,{2}Cf,
{12}4hx[6:1]/7hx[6:1],,,6,5,6,2hx[6:1]/5hx[6:1],,,3,4,3,
1hx[6:1]/6hx[6:1],,,7,8,7,3hx[6:1]/8hx[6:1],,,2,1,2,
7,7,5,4,2,2,6,6,8,1,3,3,7,5,6,1,3,2,
{32}7x,6,5,4,3,2,1,8,{4}3b/7b,
2x-8[8:1]/6x-4[8:1],2-6[8:1]/6,2x^5[8:1]/6x^1[8:1],2x/6x,
(152)3x-5[8:1]/7x-1[8:1],3/7-3[8:1],3x^8[8:1]/7x^4[8:1],3x/7x,
(144)
{4}2x/6hx[2:1],,5h[4:1],4h[4:1],3h[2:1],,2,
(116)4,
{16}4,5,{32}4,5,3-6[8:13],4,
{1}5,,,,,,,,,,,,
E

Re:MASTER


名前:
コメント:

タグ:

+ タグ編集
  • タグ:
最終更新:2026年04月12日 14:33