| アーティスト |
キノシタ feat. そらみこ (ホロライブ ときのそら&さくらみこ) |
BASIC
ADVANCED
EXPERT
(183)
{4},45,,45,,45,{8},3,3,,
{4},45,,45,,45,{8},6,6,,
{4}35,2,34,2,35,2^5[4:1],,,
46,7,56,7,46,7<3[4:1],,,
24,45,57,45,24,45,{8}7,7,1,,
{4}13,18,68,12,3b,2b,1b,2b/7b,
{8}6h[2:1],,,5,5,,4,,3h[2:1],,,4,4,,5,,
{4}6h[4:1],5h[4:1],4h[4:1],3h[4:1],
{8}5,,4,4,,4x/5x,,3x/6x,
{2},B1/B8,{4}E3,E7,C,,
{4}7b,18,2,3p6[4:1],,,1b/8b,,
{8}3h[2:1],,,4,4,,45,,6h[2:1],,,5,5,,45,,
{4}B3,B2,B1,B8,B7,B6,B4/B5,,
3h[4:1],2h[4:1],1h[4:1],8h[4:1],7h[4:1],6h[4:1],5h[4:1],4qq1[4:3]*pp7[4:3],
{1},{4},2x-6[8:1]/7x-3[8:1],,,
1h[4:1],7h[4:1],8h[4:1],1pp8[2:1],,,,28,
{12}7h[4:1],,8x,8x,,,2h[4:1],,1x,1x,,,
3h[4:1],,4x,4x,,,6h[4:1],,5x,5x,,,
{4}8h[4:1],2h[4:1],1h[4:1],8qq1[2:1],,,,8,
57,34,24,1,24,56,57,18,
2h[4:3]/7,B5,B4,C,{12}8x,1x,8x,{4}1x,1b/8b,2b/7b-4[8:1],
8-3[8:1],7-4[8:1],8-3[8:1],7,{8}45,,12,12,,8b,8b,,
{4}3h[4:1]/5,1h[4:1],8-4[8:1],,{8},35,,47,{4}47,2b-5[8:1]/8b,
1-6[8:1],2-5[8:1],1-6[8:1],2,{8}45,,78,78,,1b,1b,,
6,6,3,3,{4}45,18,1b/8b,2b/7b,3b/5b,4b/7b-4[8:1],
2-5[8:1],7-4[8:1],2-5[8:1],7,{8}56,,12,12,,8b,8b,,
{4}3h[4:1]/5,1h[4:1],8-4[8:1],,{8},56,,38,{4}38,2b-5[8:1],
7-4[8:1],2-5[8:1],7-4[8:1],2,{8}45,,78,78,,1b,1b,,
7,7,2,2,{4}18,45,2b/7b,B2/B3/E3,B6/B7/E7,C,
{2}8^6[8:1],1^3[8:1],{4}5,4,Cf,,
17,6,78,6,17,6^1[4:1],,,
28,3,12,3,28,3>7[4:1],,,
68,18,13,18,68,18,{8}2,2,4,,
{4}57,45,24,45,{1}Chf[2:1],
{2}1hx[4:1]/2hx[4:1],
{8}6x,5x,7x,7x,3x,4x,2x,2x,{4}1x/8x,4x/5x,
{16}1x,8x,1x,8x,1x,8x,1x,8x,
{4}1hx[4:1],8x,3x-8[8:1]/7x-4[8:1],,2b/6b,4x/5x,
{8}7x/8x,7x/8x,7x/8x,,2x/4x,2x/4x,2x/4x,,
{4}x/6x,3x/4x,5x/7x,2x/4x,
{16}7x,8x,7x,8x,7x,,,,2x,1x,2x,1x,2x,,,,{2}1hx[4:1]/8hx[4:1],2b/7b,
4h[2:1],3h[2:1],2-6[4:1],,5h[2:1],6h[2:1],7-3[4:1],,
2h[2:1],4h[2:1],5h[2:1],{4}7,4,
13,78,68,5,68,12,13,45,
2/7h[4:3],B5,B4,C,
{12}2x,1x,2x,{4}1x,3x/8x-6[8:1],,
{12}8b,1b,8b,{4}1b,2b/7b,Cf,
{8}1x/2x,1x/2x,,,7x/8x,7x/8x,,,4x/5x,,2x/7x,2x/7x,,1b,1b,,
{4}7h[4:1],5h[4:1],4h[4:1],2,Cf,,2b/8b,1b/8b-3[8:1],
8-3[8:1],7-4[8:1],8-3[8:1],7,{8}45,,12,12,,8b,8b,,
3,3,6,6,{4}45,18,1b/8b,2b/7b,4b/5b,1b/6b-1[8:1],
3-8[8:1],6-1[8:1],3-8[8:1],6,{8}78,,34,34,,1b,1b,,
{4}2/7h[4:1],5h[4:1],4-8[8:1],,{8},12,,47,{4}47,6b-1[8:1],
3-8[8:1],6-1[8:1],3-8[8:1],6,{8}18,,56,56,,8b,8b,,
3,3,6,6,{4}45,18,2b/7b,B6/E7,B3/E3,C,
{1}7-3[2:1]*<3[2:1],{4}E7,E3,C,,
{1},,,,,,,,,,,,
E
MASTER
(183)
{4}7h[1:2],5,,5,,5^3[4:1],,,
2h[4:7],4,,4,,4>8[4:1],,,
34,12,45,12,34,12,45,12,
56,78,45,78,56,78,{16}36,,4,5,4,,,,
{4}3^8[8:1],6^1[8:1],4p8[8:1],5q1[8:1],
3^8[8:1],6^1[8:1],{8}4,4,57,,
{4}3^8[8:1],6^1[8:1],4p8[8:1],5,
1/B5/B6/E6,8/B3/E4,1-5[8:1],8x,
{8}2h[4:1]/6h[4:1],,,5,5,3,3,7,
5h[4:1]/7h[4:1],,,8,8,4,{4}6-8[8:1],
2-4[8:1],6-8[8:1],2-4[8:1],6-4[8:1],
2-8[8:1],6-4[8:1],2-8[8:1],6,
{2}3h[4:1]/4h[4:1],5h[4:1]/6h[4:1],
{4}3h[8:1]/5h[8:1],4h[8:1]/6h[8:1],{8}35,2,2-5[8:1],,
5b,,46,4-1[8:1]/6-1[8:1],,,,28,,35,3V51[4:1]*V57[4:1]/5,,,,,,
3h[4:1]/7h[4:1],,,4,4,6,6,2h[8:3]/4h[8:3],,,1,1,5,5,{4}3^1[8:1],
{4}7^5[8:1],3^1[8:1],7^5[8:1],3^5[8:1],
7^1[8:1],3^5[8:1],7^1[8:1],3,
{8}5h[8:3]/6,,3,{4}3h[2:1],2,1h[2:1],8,7h[2:1],{8}5,5,,
6,6,5,{4}24,57,6p3[2:1]/7pp2[2:1],{8},{4},,,
2/7^4[8:1],B1/B8,2^5[8:1]/7,B1/B8,
{12}6,,6,5,,,3,,3,4,,,
7,,7,5,,5,4,,4,2,,2,{4}4,13,1h[4:1]/3h[4:1],,
2/7^4[8:1],B1/B8,2^5[8:1]/7,B1/B8,{12}7,,7,5,,5,{4}4,1-4[8:1]/7,
5,2/8-5[8:1],4,1^4[8:1]/7,5,2/8^5[8:1],4,34,
{1}7qq4[2:1]/1q4[2:1],{12}3x/5x,3x/5x,3x/5x,{4}3x^8[8:1]/5xv8[8:1],3x/5x,2b/7b,
5/6^8[8:1],4p8[8:1],5-8[8:1],3h[4:1],
{8}4,4,2q6[8:1],5,,1b,1b,,
3,5,4,6,{4}2-5[8:1]/7-4[8:1],27,
{8}12,12,,56,{4}5^2[8:1]/6^1[8:1],5x/6x,
3^1[8:1]/4,5q1[8:1],4-1[8:1],6h[4:1],
{8}5,5,7p3[8:1],4,,8b,8b,,
2,5,{4}4pp4[4:1]*qq4[4:1],4,,36,7/B4/E4,2/B5/E6,7/B4/E4,
1-3[8:1]/8-4[8:1],18,1-5[8:1]/8-6[8:1],18,
{8}3,3,7p3[8:1],5,,1x,{4}1x>5[4:1],
5q1[4:1],1>5[4:1],5q1[4:1],1,{8}5,5,,34,34,,1b/6b,,
{4}1-5[8:1]/8-6[8:1],18,1-3[8:1]/8-4[8:1],18,
{8}6,6,2q6[8:1],4,,8x,{4}8x<4[4:1],
4p8[4:1],8<4[4:1],4,8,27,34,56,34,
{1}3qq5[2:1]/6pp4[2:1],{2}3h[8:3]/6h[8:3],E3f/E7f/Cf,
{4}3-8[8:1]/6,6,3-8[8:1]/5,5,3-8[8:1]/4,4,3-8[8:1]/5,5,
3/6-1[8:1],3,4/6-1[8:1],4,5/6-1[8:1],5,{16}36,,4,5,4,,,,
{4}3^8[8:1],6^1[8:1],4p7[8:1],5q2[8:1],
3^8[8:1],6^1[8:1],{8}4,4,57,,
{4}3^8[8:1],6^1[8:1],4p7[8:1],5q2[8:1],
{8}3,3,{4}4/6w2[8:1],6x,,
45,1b/8b,{16}35,,2,4,{8}2-5[8:1],6,7,7,4,4,5,47,47,,
{16}5,6,5,6,4,7,4,7,3,8,3,8,{4}2-6[8:1],1-5[8:1],2-6[8:1],1-5[8:1],2b,
{8}3/4h[4:1],,5,5,5h[4:1],,6,6,
7h[8:1],6h[8:1],5h[8:1],4h[8:1],{4}3,25,
{16}3,4,3,6,5,6,3,4,{4}3,5>8[4:1]/6pp8[4:1],,,4h[4:1]/5h[4:1],,
{1}8<4[2:1]/Ch[1:1],{4}8<4[2:1],,1,1,
{1}1>5[2:1]/Ch[1:1],1z5[2:1],
{1}1h[4:3]/7z3[2:1],2s6[2:1]/8h[4:3],
{4}4qq6[4:1]/7,7b,7b,18,2/5pp3[4:1],2b,2b,18,
{4}3pp1[4:1]/6qq8[4:1],,,27,
{12}3x/5x,3x/5x,3x/5x,{4}3x/5x,1x/6x-1[8:1],,
{12}4x/6x,4x/6x,4x/6x,{4}4xv1[8:1]/6x^1[8:1],4x/6x,2b/7b,
{8}34,34,,,47,47,,,{4}1x^4[8:1]/8x^5[8:1],1x-5[8:1]/8x-4[8:1],1x/8x,2b/7b,
{8}6,4,5,3,{4}2v5[8:1]/7v4[8:1],27,3h[4:1]/6h[4:1],,1b/8b,1b/8b,
3^1[8:1]/4,5q1[8:1],4-1[8:1],6h[4:1],
{8}5,5,7V53[4:1],4,,8b,8b,,
2h[8:1],5,6h[8:1],4,{4}4pp1[4:1],8,8,7/B4/E4,2/B5/E6,7/B4/E4,
1-5[8:1]/8^6[8:1],18,1^3[8:1]/8-4[8:1],18,
{8}6,6,2V46[4:1],4,,8x,{4}8x<4[4:1],
4>8[4:1],8<4[4:1],4>8[4:1],8,{8}4,4,,56,{4}56,3b/8b,
1^3[8:1]/8-4[8:1],18,1-5[8:1]/8^6[8:1],18,
{8}3,3,7V53[4:1],5,,1x,{4}1>5[4:1],
5<1[4:1],1>5[4:1],5,1,27,56,34,56,
{1}3/7z3[2:1],2>6[4:1],,,,,,,,,,
E
Re:MASTER
最終更新:2026年04月05日 14:02