アットウィキロゴ

wheel

アーティスト Syrufit + HDLV

BPM BASIC ADVANCED EXPERT MASTER Re:MASTER
136 2 6 9 13 -

EXPERT MASTER Re:MASTER
譜面制作者 はっぴー シチミヘルツ -

BASIC

(136.0){1},,,,,,
{1}4,
{1}4,
{1}5,
{1}5,
{2}4,4,
{1}4,
{2}5,5,
{1}5b,
{2}4,4,
{2}3,3,
{2}2,2,
{4}1,1,1,,
{2}8,8,
{2}7,7,
{2}6,6,
{4}5,5,4x/5x,,
{1}5h[2:1],
{1}6h[2:1],
{1}7h[2:1],
{4}8,8,1,1,
{1}2h[2:1],
{1}3h[2:1],
{1}4h[2:1],
{4}5,5,4x/5x,,
{1}E6,
{1}B6,
{1}B7,
{1}B8,
{1}B1,
{1}B2,
{1}B3,
{1}B4,
{1}B5,
{1}E5/B6,
{1}B4,
{1}B3/E5,
{1}B4/B5,
{1}B3/B6,
{1}Ch[1:1],,
{4}8,8,8,,
{4}7,7,7,,
{4}6,6,6,,
{4}5,4,5x,,
{4}4,4,4,,
{4}3,3,3,,
{4}2,2,2,,
{4}1,8,1b,,
{1}1-4[4:3],,
{1}8-5[4:3],,
{1}2-5[4:3],,
{1}7-4[4:3],,
{4}1,1,1,,
{4}2,2,2,,
{4}3,3,3,,
{4}4,5,4x,,
{4}5,5,5,,
{4}6,6,6,,
{4}7,7,7,,
{4}8,1,8b,,
{2}1,1,
{2}2,2,
{2}3,3,
{2}4,4,
{1}5h[1:1],,
{1}4h[1:1],,
{1}4x/5x,
E

ADVANCED

(136.0){1},,,,,,
{4}3x,3,3/4,,
{4}6,6,5/6,,
{4}3,3,3/4,,
{4}5,5,4/6,,
{4}7,7,7/8,,
{4}2,2,1/2,,
{4}7,7,1/8,,
{1}1b-5[2:1]/8b-4[2:1],
{4}3h[4:1],4,4,,
{4}6h[4:1],5,5/6,,
{4}3h[4:1],4,4,,
{4}5/6,5/6,5/6,,
{4}7h[4:1],8,8,,
{4}2h[4:1],1,1/2,,
{4}7h[4:1],8,8,,
{4}1,8,2/7,,
{4}3,3,4,,
{4}6,5,5/6,,
{4}3,3,4,,
{4}6,5,4/6,,
{4}7,7,8,,
{4}2,1,1/2,,
{4}7,7,8,,
{4}1/8,1/8,2/7,,
{1}3>6[4:5],,
{1}6<3[4:5],,
{1}3-6[2:1],
{1}7-3[2:1],
{1}2pp6[4:5],,
{2}B5,B6,
{1}B7/E8,
{2}B1,B2,
{1}B3/E4,
{2}E4/E6,B3/B6,
{2}B2/B7,E2/E8,
{1}Chf[1:1],,
{4}2,1/2,7,7/8,
{4}2,2,1/3,,
{4}3,3/4,6,5/6,
{4}4,4,3/5,,
{4}7,7/8,2,1/2,
{4}7,7,6/8,,
{4}6,5/6,3,3/4,
{4}5,4/5,3/6,,
{4}2,1x/2x,2,1x/2x,
{4}2,1x/2x,1x/2x,,
{4}7,7x/8x,7,7x/8x,
{4}7,7,6/8,,
{4}6,5x/6x,6,5x/6x,
{4}6,5x/6x,5x/6x,,
{4}3,3x/4x,3,3x/4x,
{4}3,4x/5x,3x/6x,,
{4}2,2,1,1,
{4}8,8,1/7,,
{4}6,6,5,5,
{4}4,4,3/5,,
{4}2,2,1,1,
{4}8,8,1/7,,
{4}6,6,5,5,
{4}4/5,4/5,3/6,,
{4}2,2,1/2,,
{4}7,7,7/8,,
{4}2,2,1/2,,
{4}1/8,1/8,2/7,,
{1}3>4[2:3],,
{4}3,3,3,,
{4}5,5,4/5,3/6,
E

EXPERT

(136.0){1},,,,,,
{8}5/3h[2:1],,5,,5,,5,4,
{8}5/3h[2:1],,5,,5,,5,4,
{8}5/3h[2:1],,5,,5,,5,4,
{8}5/3h[2:1],,5,,5,,5,4,
{8}3/5,,5/6,,3/5,,5/6,4,
{8}3/5,,5/6,,3/5,,5/6,4,
{8}3/5,,5/6,,3/5,,5/6,4,
{1}C1f,
{8}5/6h[4:3],,5,,5,,5,6,
{8}6/7h[4:3],,6,,6,,6,7,
{8}7/8h[4:3],,7,,7,,7,8,
{8}8/1h[4:3],,8,,8,,8,1,
{8}1/2h[4:3],,1,,1,,1,2,
{8}2/3h[4:3],,2,,2,,2,3,
{8}3/4h[4:3],,3,,3,,3,4,
{4}4/5h[2:1],4h[4:1],,,
{8}4/3h[4:1],,4,3h[8:3],4,,4,3,
{8}3/2h[4:1],,3,2h[8:3],3,,3,2,
{8}2/1h[4:1],,2,1h[8:3],2,,2,1,
{8}1/8h[4:1],,1,8h[8:3],1,,1,8,
{8}8/7h[4:1],,8,7h[8:3],8,,8,7,
{8}7/6h[4:1],,7,6h[8:3],7,,7,6,
{8}6/5h[4:1],,6,5h[8:3],6,,6,5,
{8}5/4h[4:1],,5,4h[8:3],5,,5,,
{2}6-1[4:1],2-5[4:1],
{8}6,,4/7,6,6,5,4,3,
{2}4/3-8[4:1],7-4[4:1],
{8}3,,2/5,3,3,4,5,6,
{2}5/6-1[4:1],2-5[4:1],
{2}6-3[4:1],2-7[4:1],
{4}6,4/6,3,3/5,
{4}6,5/6,4,4/5,
{2}3-8[4:1],7-4[4:1],
{8}3,,2/5,3,3,4,5,6,
{2}5/6-1[4:1],2-5[4:1],
{8}6,,4/7,6,6,5,4,3,
{2}2h[2:1],3h[2:1],
{2}4h[2:1],5h[2:1],
{1}Ch[1:1],
{4}E1,,,1b,
{2}4x-1[8:1]/8x-5[8:1],1x-4[8:1]/5x-8[8:1],
{8}4x/8x,,2/6,,5,4,3/7,,
{2}1x^4[8:1]/5x^8[8:1],4x^1[8:1]/8x^5[8:1],
{8}1x/5x,,3/7,,4,5,2/6,,
{2}4x-1[8:1]/8x-5[8:1],1x-4[8:1]/5x-8[8:1],
{8}4x/8x,,2/6,7,1,1,8,,
{2}3x-8[8:1]/7x-4[8:1],1x-4[8:1]/5x-8[8:1],
{2}3x-6[8:1]/7x-2[8:1],4x/8x,
{2}1x-4[8:1]/5x-8[8:1],4x-1[8:1]/8x-5[8:1],
{8}1x/5x,,3/7,,4,5,2/6,,
{2}4x^1[8:1]/8x^5[8:1],1x^4[8:1]/5x^8[8:1],
{8}4x/8x,,2/6,,5,4,3/7,,
{2}1x-4[8:1]/5x-8[8:1],4x-1[8:1]/8x-5[8:1],
{8}1x/5x,,3/7,2,8,8,1,,
{2}2x-5[8:1]/6x-1[8:1],4x-1[8:1]/8x-5[8:1],
{4}2x-7[8:1]/6x-3[8:1],,1x/5x,3x/7x,
{2}4x^1[8:1]/8xv5[8:1],1xv4[8:1]/5x^8[8:1],
{8}4x/8x,,2/6,,5,4,3/7,,
{2}1x^4[8:1]/5x^8[8:1],4x^1[8:1]/8x^5[8:1],
{8}1x/5x,,3/7,,4,5,2/6,,
{2}4xv1[8:1]/8x^5[8:1],1x^4[8:1]/5xv8[8:1],
{8}4x/8x,,2/6,7,1,1,8,8,
{1}4h[1:1],
{1}Chf[1:1],
{4}E1,,,1/8,
{8}7h[4:1],,5,,8,8,1,,
{8}2h[4:1],,4,,5,5,4,,
{4}6h[4:1],5,4/7,2/5,
{16}6hx[16:9],,,,,,,,,8hx[2:1],,,,,,,
{16},1hx[2:1],,,,,,,,3hx[16:7],,,,,,,
{4}5,5/6,7,1/8,
{4}2,3/4,5,4/6,
{1}8b,
E

MASTER

(136)
{1}4b>5[8:31]/5b<4[8:31],,,,{2},3b/6b,
{4}6-3[8:1],2h[2:1],3-6[8:1],,3-6[8:1],7h[2:1],6-3[8:1],,
6-3[8:1],2h[2:1],3-6[8:1],,1-4[8:1],5-8[8:1],,,
7-2[8:1],3h[2:1],2-7[8:1],,2-7[8:1],6h[2:1],7-2[8:1],,
5-8[8:1],2h[2:1],8-5[8:1],1s5[4:1],,,,,
{8}3,3,5,4,6-4[8:1],6-8[8:1],,,3,3,4qq5[4:1],5,6h[4:1],,,,
6,6,4,5,3-5[8:1],3-1[8:1],,,6,6,5pp4[4:1],4,3h[4:1],,,,
{8}3,3,5,4,6-4[8:1],6-8[8:1],,,3,3,4qq5[4:1],5,6h[4:1],,,,
6,6,4,5,3-5[8:1],3-1[8:1],,,6,7,8qq8[4:1],1,2,,,,
3,3,5,4,7-5[8:1],7-1[8:1],,,4,3,2qq3[4:1],2,4h[4:1],,,,
6,6,4,5,2-4[8:1],2-8[8:1],,,5,6,7pp6[4:1],7,5h[4:1],,,,
3,3,5,4,7-5[8:1],7-1[8:1],,,4,3,2qq3[4:1],2,4h[4:1],,,,
6,6,4,5,2-4[8:1],2-8[8:1],,,4,2,{4}1-5[8:1],8b,3>6[8:9],
,B5/E5,,B3/E3,,B1/E1,5,6>3[8:9],,B4/E5,,B6/E7,,B8/E1,4,3^1[4:1],
,6^8[4:1],,2^4[4:1],,7^5[4:1],4,3<2[4:3],,,,6-3[8:1],,3-6[8:1],,7<2[8:9],
,B8/E1,,B6/E7,,B4/E5,1,2>7[8:9],,B8/E1,,B2/E3,,B4/E5,1,7^5[4:1],
,4^2[4:1],,5^7[4:1],,2^4[4:1],,7<8[2:1],,,,,2-6[8:1],,,1q8[4:1],
8p2[4:1],2>7[4:1],7p1[4:1],1,4w8[8:1],4,{8}26,3,4>7[4:1]/8,,
{4}7p2[4:1],2<5[4:1],5p8[4:1],8,6<5[4:1],Cf,{8}1,2,3-1[8:1]/8,,
{4}3-5[8:1]/6-8[8:1],3-1[8:1]/6,3-5[8:1]/6-8[8:1],36,1w5[8:1],1,{8}37,6,1^4[8:1]/5,,
{4}1-6[8:1]/7v4[8:1],1^4[8:1]/7,1-6[8:1]/7v4[8:1],17,{8}15,2,38,7,1b/6b,,8p1[4:1]/4,,
{4}1q7[4:1],7<2[4:1],2q8[4:1],8,5w1[8:1],5,{8}37,4,1/5<1[4:1],,
{4}2q7[4:1],7>4[4:1],4q1[4:1],1,3>4[4:1],Cf,{8}8,7,1/6-8[8:1],,
{4}3-1[8:1]/6-4[8:1],3/6-8[8:1],3-1[8:1]6-4[8:1],36,8w4[8:1],8,{8}26,3,4/8^5[8:1],,
{4}2v5[8:1]/8-3[8:1],2/8^5[8:1],2v5[8:1]/8-3[8:1],28,{8}48,7,24,3,57,6,1b>8[4:1]/5b,,
{4}8p2[4:1],2>7[4:1],7p1[4:1],1,4w8[8:1],4,{8}26,3,4^1[8:1]/8^5[8:1],,
{4}4q8[8:1]/8q4[8:1],4^1[8:1]/8^5[8:1],4q8[8:1]/8q4[8:1],48,3/7>6[4:1],Cf,{8}1,2,3^8[8:1]/8,,
{4}3-5[8:1]/5^8[8:1],3^8[8:1]/5,3-5[8:1]/5^8[8:1],35,8w4[8:1],8,{8}26,3,48,,
{1}5pp5[2:1]*qq5[2:1]/Cf,{4}1-5[8:1]/7,1/5-3[8:1]*-7[8:1],5,4b/8b,
{8}25,3,45,{16}6,5,7,5,{8}8,12,38,47,6,45,{16}3,4,2,4,{8}1,78,16,
25,3,45,{16}6,5,7,5,{8}8,12,38,47,25,{4}1^4[8:1]/8^5[8:1],18,2b/7b,
{16}1,2-4[4:1],8,7,{4}4v5[4:1],5-7[4:1],8,8-5[4:1],5q4[4:1],4,1,
6-2[4:1],2<4[4:1],4,1,2-6[4:1],2<3[4:1],2x,8,
{1}1b/5b-1[8:11],,,,,,,,,,
E

Re:MASTER


名前:
コメント:

タグ:

+ タグ編集
  • タグ:
最終更新:2026年10月01日 19:30