BASIC
ADVANCED
EXPERT
(174)
{4}6,6,64,64,6,6,65,65,3,3,35,35,3,3,34,2x/4,
3,3,43,53,63,6,64,65,6h[4:1]/5h[4:1],,4h[4:1]/3h[4:1],,E6,E5,E4,7b/2b,
43,4,43,54,65,5,65,74,65,5,65,54,43,54,7b/2b,,
6/3^6[4:1],,7,7,3/6^3[4:1],,2,2,53,64,73,62,8b,,,6x/3x,
2h[2:3],4,4,3,4,4,3,54,6h[4:5],5,5,7,5,5,74,,
{8}3,3,4,,6,6,5,,2,2,4,,53,,64,,6,6,4,4,5,5,3p6[2:1],,,,,,8,,8b,,
{4}1x/7^4[2:1],,2,1h[2:1],,4,8,73,6x/2^5[2:1],,7,8h[2:1],,5,1,72,
6hx[4:1]/3hx[4:1],,42,1h[2:1],,2,78,61,2h[4:1],4h[4:1],5h[4:1],7<2[2:1],,,,8b/1b,
{8}4,4,5,5,3,3,8,8,4,4,7,6,4,3,53,,
6,6,1,2,6,7,5/7-4[8:1],,1-5[8:1],,8,,6,,7b/1b,,
2,2,5,6,1,2,82,,7,7,4,3,8,7,71,,
2x,4x/2x,,7x,7x/5x,,5x/4x,6x/3x,,8x/1x,8x^5[4:1]/1x^4[4:1],,,,,,
{1}B7/B2/Cf,,,,5h[1:1]/4h[1:2],,Ch[1:1],
{8},,8x/1x,,,7x/2x,7b/2b,,
{4}3h[2:1],,4h[2:1],,E4,E3,E8/E2,,6h[2:1],,5h[2:1],,E6,E7,E8/E2,,
E1,C,E6,E7,E1,C,E4,E3,E1,C,E5,E6/E4,Ch[4:3],,,,
8x/1>7[4:3],,,,8<2[4:3],,,,1p8[4:3],,,,Ch[2:1],,,,
{8}2,2,5,5,4,4,7,7,4,4,5,5,2,2,7,7,
{16}1,8,1,8,1,8,1,8,1x,8,1,8,1,8,1,8,
{4}2b,,,54,
{8}3-8[8:1],3,7-4[8:1],7,1,,52,,6-1[8:1],6,2-5[8:1],2,8,,74,,
53,4,75,,64,5,42,,1-5[8:1],,6<3[4:1],,4b,,,,
72,,3,4,53,,4/7h[4:1],,8,,61,,12,83,74,,
3,3,4,2,8,1,7h[4:1],,{16}5x,,,5x/4x,,,{8}4x/2x,4x/2x,,1b,,
2-5[8:1],2,6-1[8:1],6,4,,83,,7-4[8:1],7,3-8[8:1],3,5,,61,,
75,6,53,,42,3,64,,5-1[8:1],,2>7[4:1],,8b,,,,
1,1,6,6,4,4,8,8,3,3,1,1,8,8,6,6,
54,54,54,54,{16}3,6,3,6,3>6[2:1],6,3,6,
{4},,,7b/2b,
3h[4:3],4,2,8,6h[4:3],5,7,1,
2/4h[4:1],2,6/5h[4:1],6,54,54,B6/B3/Ch[4:1],,
{8}1,1,7,7,4,4,6,6,3,3,4,4,2,2,7,7,
{16}1,8,1,8,1,8,1,8,2,7,2,7,2,7,2,7,
{4}1b,6bp1[4:1]/3bq8[4:1],,,E7/E3/Cf,
E
MASTER
(174)
{4}3h[4:7],4h,6h,6h,4h,4h,6h,6h,
5h/6h[4:7],5h,3h,3h,5h,5h,3h,{24}E4,B4,,,,,
{4}7h[4:7]/8h,8h,2h,2h,8h,8h,2h,2h,
1h/2h[2:1],1h,7h,2h/7h,
B1/B4/B5/B6/B7/B8,B4/B8/C/E1/E5,B1/B2/B3/B4/B5/B6/B7/B8/E4,B3f/B6f/Cf/E4f/E6f,
8x-5[8:1],5-8[8:1],8-5[8:1],4h,3-7[8:1],7-3[8:1],3-7[8:1],6h,
5-1[8:1],1-5[8:1],5-1[8:1],3h,2-6[8:1],6-2[8:1],2p6[8:1]*q6[8:1],,
{8}4hx/8hx,7h,2h/6h,3h,4hx/8hx,7h,2h/6h,3h,
4h/8h,4h/8h,3h/7h,3h/7h,2h/6h,2h/6h,1h/5h,1h/5h,
{16}6h,2h,6h,2h,7h,3h,7h,3h,8h,4h,8h,4h,
{24}7hx,6hx,5hx,1hx,2hx,3hx,{4}4xpp8[4:1]*qq8[4:1]/8b,,,2b/6b,
{4}7^5[8:1],3^5[8:1],7^1[8:1],3^1[8:1],7^5[8:1],2pp4[8:1],6,3x/5x,
{8}7^5[8:1],7,3^1[8:1],3,6^4[8:1],6,2^8[8:1],2,
5-8[8:1],5,4-1[8:1],4,{4}1,2x/7x,
{8}5-1[8:1],4,3,2-6[8:1],8,7-5[8:1],7-1[8:1],7x-3[8:1],,,{16}1,1,,28,{8},45,2x/6x,,
4-8[8:1],5,6,7-3[8:1],1,2-4[8:1],2-8[8:1],2x-6[8:1],,,{16}8,8,,17,{24},E6,B5,B4,E4,,{8},,
{4}1x>6[2:1]/6x,,6p1[2:1],7h[2:1],,8,16,25,
3/8<3[2:1],,3q8[2:1],2h[2:1],,1,38,4v5[4:1]/7,
,{8}7,7,8,8,1,1,2,2,3,3,4,4,5,5,
{4}5h[8:1]/6h[8:1],5h[8:1]/6h[8:1],{16}3h[8:1]/5h[8:1],,,4h[8:1]/6h[8:1],,,18,,
2/7h[8:1],,,5,{8}6,47,18,27,3b/6b,,
{16}25,,3,4,3,,45,,6,5,6,,47,,35,,6,5,6,5,6,,57,,2,5,2,5,2,,35,,
47,,6,5,6,5,7,,{8}18,28,27,37,
{16}2h[8:1]/6h[8:1],,,3h[8:1]/5h[8:1],,,
4h[8:1]/6h[8:1],,,2h[8:1]/5h[8:1],,,{8}45,36,2b/7b,,,,
{16}6,4,6,4,5,3,5,3,6,5,7,3,4,2,4,5h[8:1],,7h[8:1],,5,6,5,6,5,
4hx[8:1]/6hx[8:1],,,4x/7x,,,3hx[8:1]/5hx[8:1],,,2x/5x,,,4x/7x,,2x/6x,,
3,5,3,{8}5,46,35,2h[8:1]/4,{16}1,2,8,3,7,
{0.5}Cf,7p4[4:5],2q5[4:5],{2}E4,E6,
{8}E5,,3b/6b,,,3b/6b,3b/6b,,
{4}7hx[1:1],E6,E7,E8,3hx[1:1],E4,E3,E2,
6hx[1:1],E6,E7,E8,2hx[1:1],E4,E3,E2,
8hx[1:1],E8,E7,E6,1hx[1:1],E2,E3,E4,
E5,E4/E6,B3/B6,E2/E8,B1/B4/B5/B6/B7/B8,B4/B8/C/E1/E5,B1/B2/B3/B4/B5/B6/B7/B8/E4,Cf,
1hx[8:1]/8hx[8:1],1h[8:1]/2h[8:1],2h[8:1]/3h[8:1],3h[8:1]/4h[8:1],
4h[8:1]/5h[8:1],5h[8:1]/6h[8:1],6h[8:1]/7h[8:1],7h[8:1]/8h[8:1],
{8}18,8,78,7,67,6,56,5,45,45,34,23,{2}1-4[8:1]/8-5[8:1],
{8}8-5[8:1],8,1-4[8:1],1,7-4[8:1],7,2-5[8:1],2,
6-1[8:1],6,3-8[8:1],3,5-8[8:1],5,4-1[8:1],4,
{16}7x,6x,5x,4x,3x,2x,1x,8x,
{32}7x,6x,5x,4x,3x,2x,1x,8x,7x,6x,5x,4x,3x,2x,1x,8x,
{4}3x-6[4:1]/7x-2[4:1],,,48,
{8}2b/4b,45,5/7h[8:1],{16}8,7,1,6,2,5,3,4,
{8}2h[4:1],,1,4/8h[8:1],{16}6,8,5,7,4,6,3,5,2,4,
{8}1h[8:1],3,25,4/8h[8:1],{16}6,7,4,5,2,3,1h[4:1],,
,,4,2,5,3,6,4,{4}8-4[8:1],2b/8b,
{8}2,34,45,{16}6,5,,47,,6,5,,4/7h[8:1],,
8,1,2,3,8,7,6,5,1,8,7,6,2,1,8,7,
3,3h[16:3],,,8,,1/7h[8:1],,5,6,1,8,3,4,1,8,
2/7h[16:3],,,5h[16:3],,,4,,{8}2x/7x,,1b,1b,
57,45,2h[8:1],{16}1,2,8,3,7,4,6,5,
{8}7h[4:1],,8,1h[8:1]/5,{16}3,1,4,2,5,3,6,4,7,5,
{8}8h[8:1],6,47,1h[8:1]/5,{16}3,2,5,4,7,6,
{4}8h[4:1],{16}5,7,4,6,3,5,1,8,2,7,1,8,2,7,
{8}18,18,{16}7,7h[8:1],,6,6h[8:1],,2,2h[8:1],,5,5h[8:1],,
8,,17,,2,2h[8:1],,5,5h[8:1],,7,7h[8:1],,4,4h[8:1],,
1,5,1,6,1,7,1,8,{32}1,2,3,4,5,6,7,8,1,2,3,4,5,6,7,8,
{4}1bpp8[4:1]/5bpp4[4:1],,,2b/6b,
{8}8-4[8:1],3,3-1[8:1],,6x,,1x/8x,,
1-5[8:1],6,6-8[8:1],,3x,,1x/8x,,
8-4[8:1],3,3-1[8:1],,5-1[8:1],5,2-4[8:1],,
7-3[8:1],7,{4}5s1[4:1],1w5[8:1],,
{8}2h/4h,1h,5h/7h,8h,3h/5h,1h,4h/6h,8h,
{16}3h,4h,3h,,8h,,5h/6h,,3h,4h,,18,2b/7b,,,,
8,2,5,1,7,3,5,2,6,4,5,2,8,1,8,1,
{32}7,6,5,,,,2,3,4,,,,7,6,5,,
2,3,4,5,6,7,8,1,2-6[8:1],3,4,5,6,7,8,1,2x/5b,
{1},,,,,,,,,,
E
Re:MASTER
最終更新:2026年04月11日 19:40