EASY
BASIC
(162.0){1},
{4}6h[2:1],5,5,,
{4}3h[2:1],4,4,,
{4}5,5,4,4,
{4}4/5,4/5,3/6,,
{4}2h[2:1],1,1,,
{4}7h[2:1],8,8,,
{4}1,1,8,8,
{4}1/8,1/8,2/7,,
{4}6,6,5,5,
{4}4,3,3/4,,
{4}3,3,4,4,
{4}5,6,5/6,,
{4}6h[2:1],5,5,,
{4}3h[2:1],4,4,,
{4}2,2,1,1,
{4}8,8,7,7,
{2}6h[2:1],5h[2:1],
{4}4h[2:1],,3,3b/4b,
{4}2,2,1,1,
{4}8,7,7/8,,
{4}7,7,8,8,
{4}1,2,1/2,,
{4}2h[2:1],1,1,,
{4}7h[2:1],8,8,,
{4}6,6,5,5,
{4}4,4,3,3,
{2}3h[2:1],4,
{4}6h[2:1],,5,5b/6b,
{2}7h[2:1],8,
{4}2h[2:1],,1,1b/2b,
{2}8h[2:1],1,
{4}1h[2:1],,8,1/8,
{1}1-4[2:1]/8-5[2:1],
{8}3/6,,3/6,,4,4,4b,,
{2}5h[2:1],4h[2:1],
{2}3h[2:1],2,
{2}4h[2:1],5h[2:1],
{2}6h[2:1],7,
{4}6,6,5/6,,
{4}3,3,3/4,,
{4}4/5,4/5,3/6,3/6,
{1}4-1[2:1]/5-8[2:1],
{4}7/8,7/8,1/2,1/2,
{4}7,8,7/8,1/6,
{4}2,2,1,1,
{4}8,1,2/7,,
{4}1/2,1/2,7/8,7/8,
{4}2,1,3/8,,
{4}7,7,8,8,
{4}1,8,2b/7b,,
{4}3/4,3/4,5/6,5/6,
{4}3,4,3/4,2/5,
{4}6,6,5,5,
{4}4,5,3/6,,
{4}5/6,5/6,3/4,3/4,
{4}6,5,4/7,,
{4}3,3,4,4,
{4}5,4,{2}3b/6b,{1},,
{1}6h[1:1],
{1}5h[1:1],
{1}4h[1:1],
{2}3h[2:1],4,
{2}2h[2:1],1,
{2}7h[2:1],8,
{4}8,1,2,3,
{2}4h[2:1],5b,
{4}3/4,2/5,3/4,2/5,
{4}6,5,5/6,4/7,
{4}7,7,8,8,
{4}1,8,2/7,,
{4}7/8,1/6,7/8,1/6,
{4}2,1,3/8,,
{4}7,6,5,4,
{4}4,5,3b/6b,,
{4}1/2,3/8,7/8,1/6,
{4}8,1,2/7,3/6,
{4}5,5,4,4,
{4}3,4,2/5,,
{4}5/6,4/7,3/4,2/5,
{4}4,5,3/6,,
{4}2,1,8,7,
{4}8,1,2b/7b,,
{4}2h[2:1],1,1,,
{4}7h[2:1],8,8,,
{4}2,1,8,7,
{4}1/8,1/8,2/7,,
{4}6h[2:1],5,5,,
{4}3h[2:1],4,4,,
{4}6,5,4,3,
{4}4/5,4/5,3h[4:1]/6h[4:1],,
{1}3b/6b,
E
ADVANCED
(162.0){1},
{4}1,1,1,,
{4}2,2,2,,
{4}3,3,3,,
{1}4h[2:1]/5h[2:1],
{4}5,5,5,,
{4}6,6,6,,
{4}7,7,7,,
{4}1/8,1/8,1/8,,
{2}8,8,
{4}8,8,8,,
{2}7,7,
{4}7,7,7,,
{2}6,6,
{4}6,6,6,,
{2}5,5,
{2}4/5,4/5,
{4}4,4,5,5,
{4}4/5,4/5,4b/5b,,
{2}4,4,
{4}4,4,4,,
{2}3,3,
{4}3,3,3,,
{2}2,2,
{4}2,2,2,,
{2}1,1,
{4}1,1,1,,
{1}1-4[4:3],,
{1}8-5[4:3],,
{1}1-4[4:3],,
{2}7/8,7/8,
{4}1,1,8,8b,
{2}1,1,
{2}2,2,
{2}3,3,
{4}4,4,5,5,
{2}4,4,
{2}5,5,
{2}6,6,
{1}7h[2:1],
{4}8b,8,8,,
{4}7,7,7,,
{4}6,6,6,,
{4}4/5,4/5,4b/5b,,
{4}4,4,4,,
{4}3,3,3,,
{4}2,2,2,,
{1}1h[2:1]/8h[2:1],
{4}1,1,1,,
{4}2,2,2,,
{4}3,3,3,,
{4}4/5,4/5,4b/5b,,
{4}5,5,5,,
{4}6,6,6,,
{4}7,7,7,,
{4}1/8,1/8,{2}2/7,{1},,
{1}1-4[4:3],,
{1}8-5[4:3],,
{2}1,1,
{2}2,2,
{4}3,3,3,,
{1}4h[2:1]/5h[2:1],
{4}5,5,5,,
{4}6,6,5/6,,
{4}7,7,8,8,
{4}1,8,1,,
{4}8,8,8,,
{4}1,1,1,,
{4}2,2,3,3,
{1}4h[2:1]/5h[2:1],
{4}4,4,4,,
{4}3,3,3/4,,
{4}2,2,1,1,
{4}8,1,8,,
{4}1,1,1,,
{4}8,8,8,,
{4}7,7,6,6,
{4}4/5,4/5,3b/6b,,
{2}2,2,
{2}1,1,
{2}8,8,
{4}7,7,7,,
{2}6,6,
{2}5,5,
{2}4,4,
{4}3,3,3,,
{1}2-6[4:3],,
E
EXPERT
(162)
{4}1b,
34,56,{8}7,7,8,,{4}56,34,{8}2,2,1,,
{4}34,56,{8}7,7,8,,{4}4h[2:1]/6^1[4:1],,,27,
56,34,{8}1,1,8,,{4}34,56,{8}8,8,1,,
{4}56,34,{8}1,1,8,,{4}38,16,{8}27,27,27,27,
{4},1b/8b,3,24,7-4[8:1]/8,,16,16,
2,13,7,68,1>5[4:1]/7,,,26,
3,24,6,57,1/2-5[8:1],,38,38,
{8}7,8,7,,2,1,2,,7,8,7,,2,1,2,,
{4}45,68,45,13,1pp3[4:1]/8qq6[4:1],,,8b,
1,34,46,18,3-8[8:1]/4,,16,16,
8,12,24,57,2/8<4[4:1],,,37,
8,56,35,18,5/6-1[8:1],,38,38,
{8}3,4,3,,6,5,6,,2,1,2,,7,8,7,,
{4}45,57,45,24,45,57,45,1b,
45,24,45,57,45,24,45,8b,
18,68,18,13,18,68,18,45,
78,45,12,45,{8}18,18,18,18,1-4[8:1]/8-5[8:1],,,,
{4}4h[2:1]/6<2[4:1],,,12,3>7[4:1]/5h[2:1],,,78,
1h[2:1]/7<3[4:1],,,78,2>6[4:1]/8h[2:1],,,12,
45,56,78,18,12,34,45,27,
{8}6,6,2,2,8,8,1>8[2:1],8,{4},,,27,
{4}1b-3[8:1]/8b-6[8:1],,4h[8:1]/7h[8:1],2h[8:1]/5h[8:1],
{2}3-1[8:1]/6-8[8:1],{8}18,18,27,,
{2}1-6[8:1]/2,7/8-3[8:1],{4}2h[8:1]/5h[8:1],4h[8:1]/7h[8:1],{8}25,1b,1b-4[8:1],,
{4}8-5[8:1],1-4[8:1],8-5[8:1],1>8[2:1],,,,27,
{8}3,3,24,,5,5,4/6<3[2:1],,{4},,,27,
1b-3[8:1]/8b-6[8:1],,2h[8:1]/5h[8:1],4h[8:1]/7h[8:1],
{2}1b-4[8:1]/8b-5[8:1],{8}18,18,27,,
{2}7/8-3[8:1],1-6[8:1]/2,{4}4h[8:1]/7h[8:1],2h[8:1]/5h[8:1],{8}47,8b,8b,,
{2}2/4-8[8:1],5-1[8:1]/7,{8}18,18,18,,{2}2-5[8:1]/7-4[8:1],
{4}18,57,45,24,3-8[8:1]/7-4[8:1],,2b/6b,,{0.5},
{1}4h[1:1],5h[1:1],4h[1:1],5h[1:1],
{4}4h[1:1],5,5,5,5h[1:1],4,4,4,
{8}4,4,5,5,4,4,5,5,{1}4>5[2:1],
{4}1b-5[8:1]/6b-8[8:1],,2h[8:1]/4h[8:1],5h[8:1]/7h[8:1],
3-1[8:1]/8-4[8:1],,{8}78,78,16,,
{2}7/8-4[8:1],1-5[8:1]/2,{4}1h[8:1]/6h[8:1],3h[8:1]/8h[8:1],{8}27,8b,8b-5[8:1],,
{4}1-4[8:1],8-5[8:1],1-4[8:1],8<1[2:1],,,,27,
{8}2,2,13,,7,7,6qq1[4:3]/8,,{1},
{4}3b-1[8:1]/8b-4[8:1],,5h[8:1]/7h[8:1],2h[8:1]/4h[8:1],
{2}1-5[8:1]/6-8[8:1],{8}12,12,38,,
{2}1-5[8:1]/2,7/8-4[8:1],{4}3h[8:1]/8h[8:1],1h[8:1]6h[8:1],{8}27,1b,1b,,
{2}5-1[8:1]/7,2/4-8[8:1],{8}18,18,18,,{2}2-5[8:1]/7-4[8:1],
{4}18,24,45,57,2-5[8:1]/6-1[8:1],,3b/7b,1b/8b,
{2}1/2-5[8:1],{8}6,5,7,,{2}7-4[8:1]/8,{8}3,4,2,,
{2}5-2[8:1]/6,{8}8,1,8,,{4}3^8[4:1]/4h[2:1],,,27,
{2}7-4[8:1]/8,{8}3,4,2,,{2}1/2-5[8:1],{8}6,5,7,,
{2}3/4-7[8:1],{8}1,8,1,,{4}26,48,{8}5,5,4,4,
{8}5h[8:7],,,,,,,4,
{1},,,,,,,,,
E
MASTER
(162)
{4}2b/7b,
6-1[8:1],4-7[8:1],8-5[8:1],4-1[8:1],7-2[8:1],3>6[4:1],5,8,
3-8[8:1],5-2[8:1],1-4[8:1],5-8[8:1],2-7[8:1],6<3[4:1],4,1,
6^1[8:1],4-7[8:1],8-5[8:1],4^1[8:1],6-2[8:1],3>6[4:1],5,8,
3^8[8:1],5-2[8:1],1-4[8:1],5-8[8:1],3-7[8:1],6,{8}1,1,27,36,
{2}4-1[8:1]/5-8[8:1],{8}18,18,27,36,4,5,4,3,3,4,5,6,
{4}57,24,7-4[8:1]/8-3[8:1],,{8},2,1,8,{2}3-6[8:1]/7-2[8:1],
7^4[8:1]/8^3[8:1],1^6[8:1]/2^5[8:1],{8}7,8,1,2,2b,1b,8b,7b,
78,6,45,,12,3,45,,78,6,45,3,12,3,45,6,
{4}78,12,56,3q5[2:1]/4,,,8,1b,
25,47,{8}5,4,36,7,8,7,6,5,5,6,7,8,
{4}1>5[4:1],5,{8}8,8,{4}7-5[4:1],5v4[4:1],4-2[4:1],1,1,
3h[8:1]/8h[8:1],1h[8:1]/6h[8:1],4h[8:1]/7h[8:1],2h[8:1]/5h[8:1],
{8}1,2,3,4,4,3,2,1,
8-5[8:1],8,4-1[8:1],4,6-3[8:1],6,2-7[8:1],2,
5,5,45,45,36,27,18,,
5,6,4,3,5,7,4,2,5,6,4,3,{2}1-5[8:1]/7-4[8:1],
{8}4,3,5,6,4,2,5,7,4,3,5,6,{2}2-6[8:1]/8-3[8:1],
{8}5,6,4,3,5,7,4,2,5,6,4,3,{2}2-8[8:1]/6^4[8:1],
{8}4,2,8,6,1,2,6,7,5,3,5,8,{16}1b,8b,1b,8b,1b,,,,
{2}1-7[8:1]/2-6[8:1],3-7[8:1]/4-6[8:1],
{4}2-7[8:1],3-6[8:1],2-7[8:1],4,
6,3qq6[4:1],7,7,48,6q3[4:1]/7^2[4:1],,,
34,56,78,12,3/4-8[8:1],3-1[8:1],5-7[8:1],8b,
{8}8,7,6,5,4,3<8[4:1],2,1h[8:5],{4},,8,1-5[8:1]/8-6[8:1],
1-3[8:1]/8-4[8:1],1-5[8:1]/8-6[8:1],1-3[8:1]/8-4[8:1],,
{8}45,3,2^7[8:1],,5,5,18,,
25,3,47,6,25,3,4/7pp4[2:1],,3,3,3,,1,8b,8b-5[8:1],,
{4}1,4-1[8:1]/8p3[8:1],,1>5[4:1],5<1[4:1],1,5,
{8}46,5,4,3,2,1,8,7,6,5,45,34,{4}2-8[8:1]/3-5[8:1],,1b/4b,
{2}2^5[8:1]/6^1[8:1],4^1[8:1]/8^5[8:1],
{8}1-4[8:1],8-5[8:1],,,,4,5^8[8:1],,
{4}1^4[8:1],5-8[8:1]*q2[8:1],,28,{2}1-5[8:1]/8-4[8:1],{8}27,8b,1b,,
{2}5-2[8:1]/6-1[8:1],3-8[8:1]/4-7[8:1],{8}78,78,16,25,34,,
3-6[8:1],3,7-2[8:1],7,4-1[8:1],4,6,6,{4}4/5^8[8:1],1^4[8:1],8w4[8:1],,,{0.5}1b,
{2}3h[1:2],,4,5,6h[1:2],,5,4,{4}3,3,5,5,4,4,6,6,
{8}4,4,5,5,3,3,6,6,27,27,18,18,18,18,1-3[8:1]/8-4[8:1],,
{4}1-5[8:1]/8-6[8:1],1-3[8:1]/8-4[8:1],1-5[8:1]/8-6[8:1],,
{8}45,6,7^2[8:1],,4,4,18,,
47,6,25,3,47,6,2qq5[2:1]/5,,6,6,6,,8,1b,8b-5[8:1],,
{4}1,1-4[8:1]/8p3[8:1],,8<4[4:1],4>8[4:1],8,4,
{8}5,5,4,3,2,1,8,7,36,,
{32}1,2,3,4,5,6,7,8,1,2,3,4,5,6,7,8,1,2,3,4,5,6,7,8,{4}1b,
{2}2-5[8:1]/6-1[8:1],3-8[8:1]/7-4[8:1],
{8}1,2,{4}3qq5[4:1],8,8<4[4:1],
4>8[4:1],8<4[4:1],4,8,4^1[8:1]/5^8[8:1],,{8}27,1b,8b,,
{2}3-8[8:1]/4-7[8:1],5-2[8:1]/6-1[8:1],{8}12,12,38,47,56,,
6-3[8:1],6,2-7[8:1],2,5-8[8:1],5,3,3,
{4}4^1[8:1]/5,8^5[8:1],1w5[8:1],,,
{8}3-8[8:1],3,5-2[8:1],5,1-4[8:1],1,5-8[8:1],5,2-7[8:1],2,6<3[4:1],6,4,,1,,
6-1[8:1],6,4-7[8:1],4,8-5[8:1],8,4-1[8:1],4,7-2[8:1],7,3>6[4:1],3,5,,8,,
3^8[8:1],3,5-2[8:1],5,1-4[8:1],1,5-8[8:1],5,3-7[8:1],3,6<3[4:1],6,4,,1,,
6^1[8:1],6,4-7[8:1],4,8-5[8:1],8,4^1[8:1],4,6-2[8:1],6,3,,
{16}4,5,4,5,3,6,3,6,
{4}4v5[4:1],5q4[4:1],,{8},8b,
{1},,,,,,,,,,,,,
E
Re:MASTER
最終更新:2026年10月03日 22:15