BASIC
ADVANCED
EXPERT
MASTER
(165)
{16}4,,6,6,,,{8}35,24,3,46,,{16}5,,3,3,,,46,,{4}5/7-5[8:1],7,
{16}4,,6,6,,,{8}35,24,3,46,,{16}5,,3,3,,,27,,{4}18,B4/B5/E4/E6,
{16}47,,6,6,,,35,,{4}46,B7/B8/E7,{16}25,,3,3,,,46,,{4}57,B1/B2/E3,
45,B6/B7/E6/E8,{16}1,8,1,,B2/B3/E2/E4,,,,
{8}2,34,5,27,{4}1/8-4[8:1],8,45,36,
{16}E2,E8,B3,B6,B1,B8,E3,E7,B4,B5,B2,B7,B3,B6,E2,E8,E1,,,
45,,,47,,,25,,,{8}36,36,24,45,57,45,,
{16}E2,E8,E3,E7,E4,E6,{8}18,27,{4}36,45,36,
{16}E8,E2,B6,B3,B8,B1,E7,E3,B7,B2,B5,B4,B6,B3,E2,E8,E1,,,
45,,,25,,,47,,,{8}36,36,57,45,24,45,{4}4bq1[8:1]/5bq1[8:1],,1-5[8:1],1b,
{16}56,,7,8,,8,1,,1,2,,2,3,,45,,34,,2,1,,1,8,,8,7,,7,6,,45,,
56,,7,8,,8,1,,1,2,,2,3,,45,,7,3,5,1,8qq4[4:1],4,6,2,{2},
{16}34,,3,1,,1,7,,7,5,,5,3,,24,,56,,6,8,,8,2,,2,4,,4,6,,57,,
34,,3,1,,1,7,,7,5,,5,3,,24,,1,6,4,8,2-6[8:1],5,3,7,{4},4b/8b,
{8}46,5,3<8[2:1]/4,5,{4}6h[2:1],,{16},,1,8,2,,3,,{4}B7/B8,B3/B4,
{8}35,4,5/6>1[2:1],4,{4}3h[2:1],,{16},,8,1,7,,6,,{4}B1/B2,B5/B6,
{8}B1/B8/Chf[4:31],,,B2/B3,,,B6/B7,,,B4/B5,,,B7/B8,,,B3/B4,,
1x,1x,,,8x,8x,,,2x,2x,,,7x,7x,,
{4}7,8,1,2,{8}2,2,3,3,4,4,{4}5,B4/B5/E5,,,,5h[4:1],,5-1[8:1],5b,
{16}28,,1,1,,,68,,1-5[8:1],,7,7,,6,6,,7,8,6,,2,1,3,,{8}45,78,45,12,
{16}38,,5,5,,,12,,8-4[8:1],,2,2,,3,3,,2,1,3,,7,8,6,,{8}45,12,45,78,
{16}16,,3,4,3,,{8}25,78,16,25,34,{16}3,4,2,,6,5,7,,{8}34,25,78,16,
{16}17,,6,5,{8}6,1^6[8:1]/2,3,4,5,,{16}38,,2,1,2,1,2,,6,5,6,5,4b/7b,,,,
17,,5,5,,,12,,8-4[8:1],,2,2,,3,3,,2,1,3,,7,8,6,,{8}45,13,45,68,
{16}7,,3,3,,,78,,1-5[8:1],,7,7,,6,6,,7,8,6,,2,1,3,,{8}45,68,45,13,
{16}2,,6,5,6,,17,,8,2,8,3,8,4,8,,25,,3,4,3,,28,,1,7,1,6,1,5,1,,
36,,5,4,5,,27,,8,1,7,2,6,3,5,,46,,8,3,6,1,7,2,5-1[8:1],,3,3,,2,2,,
{8}8h[8:3],1,2,3h[8:3],4,5,6h[4:1],5,4h[8:3],5,6,7h[8:3],8,1,2h[8:1],1,
{16}28,,8,2,,2,4,,17,,1,7,,7,5,,4,5,4,5,4,5,4,5,3,6,3,6,{4}2b/7b,
{4}B2/B3/B4,B5/B6/B7,{16}12,,,78,,,{8}27,,45,36,27,1x/8x,{32}8x,7x,6x,5x,{8}4b,4x,
{4}B2/E2/E3,B7/E7/E8,{16}34,,,56,,,{8}27,,1v4[8:1]/8,1/8<3[4:1],,{2},
{8}24,5,46,7,{16}78,,,12,,,{8}27,,5,46,37,28,3,45,6,
57,4,35,2,{16}12,,,78,,,{8}36,,28,28,,{16}1,1,1,1,1,1,1,,
{4}18,B2/B3/E2/E4,{16}5,4,5,,B6/B7/E6/E8,,,,{8}24,3,57,6,
{4}1/8-4[8:1],1>8[4:7],{0.5}Chf[4:7],
{16}1,,7,8,7,,35,,1-5[8:1],,7,7,,6,6,,28,,6,5,6,,17,,8-4[8:1],,2,2,,3,3,,
{4}45,B1/B2/B3/B4/E2/E4,{16}8,1,8,,B5/B6/B7/B8/E6/E8,,,,
{8}1h[4:1]/8,3,8h[4:1],6,1w5[8:1],,1,,{4}45,36,
{16}E8,E2,B6,B3,B8,B1,B7,B3,B5,B4,B7,B2,B6,B3,E8,E2,E1,,,
45,,,25,,,47,,,{8}36,36,57,45,24,27,{16}1x,1x,1x,1x,2,8,3,7,{8}46,35,{4}2b/7b,45,36,
{16}E2,E8,B3,B6,B1,B8,E3,E7,B4,B5,B2,B7,B3,B6,E2,E8,E1,,,
45,,,47,,,25,,,{8}36,27,68,18,13,18,
{16}27,,,,3,4,3,4,2,5,2,,8b,,8b,,
{1}2b>8[8:13]/7b<1[8:13],,,,,,,,,,,
E
Re:MASTER
最終更新:2026年04月09日 20:21