BASIC
ADVANCED
EXPERT
MASTER
(160)
{1}3>5[2:1]/6<4[2:1],
{8}3hx[4:3]/8x>7[2:1],,,,,,,4x/8x,3x>5[4:1]/7hx[2:1],,,,,,4x/8x,3x/7x,
2hx[4:3]/6x>8[2:1],,,,,,,2x/7x,{4}1xs5[4:1],,8h[4:1],B4f/B5f/E5f,
{16}7h[16:3],,,6h[16:3],,,5,,2h[16:3],,,3h[16:3],,,4,,
8h[16:3],,,7h[16:3],,,6,,1h[16:3],,,2h[16:3],,,3,,
4x,5,4,5,3x,6,3,6,2x,7,2,7,1x,8,1,8,{4}Chf[4:1],,1bw5[8:1],1b,
{16}3b/7b,,,,B1,B7,B3,B5,B2,B8,B4,B6,1,,,,3x/7x,,,,B8,B2,B6,B4,B7,B1,B5,B3,8,,,,
2x/6x,,,,B1,B8,B4,B5,B2,B7,B3,B6,1,,,,2b/6b,,,,8,1,7,2,{4}8bw4[8:1],8b,
{16}2b/6b,,,,E2,B8,E4,B5,B1,E8,B4,E6,2,,,,3x/7x,,,,E8,B1,E6,B4,B8,E2,B5,E4,7,,,,
2x/6x,,,,E2,B8,B4,E6,B1,E8,E4,B5,2,,,,3b/8b,,,,4,5,4,,{8}1x-5[8:1]/8x-4[8:1],2x/7x,1b/8b,,
{16}3x/6x,,2,4,3,5,,46,,57,,6,5,,47,,56,,7,5,6,4,,35,,24,,3,4,,45,,
3x/6x,,7,5,6,4,,35,,24,,3,4,,45,,45,,2,4,3,5,,46,,57,,1x/8x,1b/8b,,,,
3x/6x,,2,4,3,5,,46,,57,,6,5,,47,,56,,7,5,6,4,,35,,24,,3,4,,45,,
{4}3xqq8[4:1]/7xqq4[4:1],,,2b/6b,B5/B6/E6,B1/B8/E1,B3/B4/E4,{32}E3f,C,E7,,,,,,
{8}7h[4:1]/8h[4:1],,,34,3h[4:1]/4h[4:1],,,56,5h[4:1]/6h[4:1],,,24,2h[4:1]/4h[4:1],,,18,
1h[4:1]/8h[4:1],,,34,3h[4:1]/4h[4:1],,,47,{16}4x/7x,,,2x/5x,,,3x/8x,,,4x/7x,,,{8}2x/7x,3x/6x,
4hx[4:1]/5hx[4:1],,,13,1h[4:1]/3h[4:1],,,68,6h[4:1]/8h[4:1],,,18,1h[4:1]/8h[4:1],,,45,
{16}6x,3,6,3,7x,2,7,2,{32}8x,7x,6x,5x,4x,3x,2x,1x,8x,7x,6x,5x,4x,3x,2x,1x,
{16}8hx[2:1],,,3,,,5,,1b,,5x/6x,,,3x/4x,,,
{8}6,6,57,6,{16}E4,B4,B5,,7,,,,{8}3,3,24,3,{16}E6,B5,B4,,2,,,,
E8,B8,B1,,E4,B4,B5,,B7,B6,E6,,B3,B2,E2,,
1xs5[8:1]/8x,,,,,,6x,,,1x/2x,,,3x/4x,,4x/5x,,
{8}5b/6b,6,78,6,{16}E4,B4,B5,,6x/7x,,,,{8}3,3,12,3,{16}E6,B5,B4,,2x/3x,,,,
E7,B6,B5,,E3,B3,B4,,8,1,8,1,8,1,8,,
B1f/B2f/Cf,,,B5f/B6f/Cf,,,B3f/B4f/Cf,,,B7f/B8f/Cf,,,Cf/E1f/E5f,,,,
{1}3xpp6[4:3],3pp6[4:3],3pp6[4:3],{4}3^6[4:1],,3,36,
{1}2pp5[4:3],3pp6[4:3],4pp7[4:3],{2}5^8[8:1],1s5[8:1],
{16}6,,6,,6h[2:1],,,5,,5,,5,6,,,,2,,2,,2h[2:1],,,3,,3,,3,2,,,,
7,,7,,7h[2:1],,,6,,6,,6,7,,,,3,,3,,3h[16:3],,,5,,5,,45,3b/6b,,,,
{4}1^3[4:1],3^5[4:1],5^7[4:1],7^1[4:1],1^4[4:1],4^7[4:1],7^2[4:1],2^5[4:1],
5<1[4:1],1,{32}2x,3x,4x,5x,6x,7x,8x,1x,{4}1b/8b,
B6/B7/B8/E7/E8,B1/B5/C/E2/E6,B3/B4/E3/E4/E5,1b/8b,
{16}1x/2x,,34,,6,5,,7,8,7,,1,28,,3,,34,,56,,7,8,,2,1,2,,34,2x/5x,,1,,
7x/8x,,56,,3,4,,2,1,2,,8,17,,6,,56,,34,,2,1,,7,8,7,,2,13,,4,,
1x/2x,,34,,6,5,,7,8,7,,2,13,,4,,56,,78,,2,1,,3,4,3,,56,4x/7x,,3,,
2x-5[8:1]/5x,,,1,2,,8,,4x/7x-4[8:1],,,8,7,,1,,
2x-5[8:1]/5x,,,1,2,,8,,{8}1x/6x,3x/4x,Cf/E3f/E7f,,
{16}7x/8x,,12,,3,4,,6,5,6,,8,17,,2,,
3,3,4,4,5,5,6,6,{32}1x,2x,3x,4x,5x,6x,7x,8x,{4}1b/Cf,
{16}1x/2x,,78,,6,5,,3,4,3,,1,28,,7,,
6,6,5,5,4,4,3,3,{32}8x,7x,6x,5x,4x,3x,2x,1x,{4}8b/Cf,
{16}7x/8x,,12,,3,4,,6,5,7,,18,27,,3,,
6,6,8,8,1,1,3,3,{32}5x,6x,7x,8x,1x,2x,3x,4x,{4}5b/Cf,
2hx[8:1]/5hx[8:1],4hx[8:1]/8hx[8:1],1xh[8:1]/6hx[8:1],4x/5x,
B1/B4/B5/B6/B7/B8/C,B4/B8/C/E1/E5,B1f/B2f/B3f/B6f/B7f/B8f/Cf,1b/8b,
{16}4x/5x,,,,B6,B1,E5,E3,E7,E1,B5,B2,8,,,,5x/7x,,,,B3,B8,E5,E7,E3,E1,B4,B7,1,,,,
2x/4x,,,,E7,E3,E5,E1,E8,E4,E6,E2,Cf,,,,2b/7b,,,,1,8,2,7,{4}1bw5[8:1],1b,
{16}3b/7b,,,,B7/E8,E2,B8/E1,E4,B6/E6,E3,B5/E5,C,8,,,,
2x/6x,,,,B2/E2,E8,B1/E1,E6,B3/E4,E3,B4/E5,C,1,,,,
3x/7x,,,,B8/E8,B5,B1/E2,B4,B7/E7,E6,B2/E3,E4,Cf,,,,
3b/8b,,,,5,4,5,,{8}1x-5[8:1]/8x-4[8:1],2x/7x,1b/8b,,
{4}2b/7b,1x/8x-5[8:1],{16}8x-3[8:1],,,8xw4[8:1],,,Cf,,
{1},,,,,,,,,,,,,,,,
E
Re:MASTER
最終更新:2026年04月09日 20:15